Today is a free download without charge Download

Слушай, как тает снег (Светлана Разгуляева) [2009, Россия, мультфильм, WEBRip]

Reply to topic
 
Author
Message

Omen ®

Longevity: 7 years 11 months

Posts: 181087

Торрент-статистика

Post 08-Aug-2016 01:00

[Quote]

Слушай, как тает снег
Страна: Россия
Жанр: мультфильм
Продолжительность: 00:06:26
Год выпуска: 2009
Перевод: Не требуется
Русские субтитры: нет
Режиссёр: Светлана Разгуляева
Описание: Музыкальный фильм о том, как один человек слышит «музыку тающего снега», а другой – нет. И когда они встречаются, то…
Фильм посвящён памяти поэтессы Зои Ионовой.
Качество: WEBRip
Формат: AVI
Видео: 959 kbps, 592х480 (5:4), 25.000 fps, MPEG-4 Visual (XviD)
Аудио: 192 kbps, 44.1 kHz, 2 channels, MPEG Audio (MP3)
Субтитры: отсутствуют

Подробные технические данные

GeneralComplete name : Слушай, как тает снег.aviFormat : AVIFormat/Info : Audio Video InterleaveFile size : 53.5 MiBDuration : 6mn 26sOverall bit rate : 1 161 KbpsDirector : created.with.SUPER(C).v2011.bld.49Writing application : VirtualDubMod 1.5.10.2 (build 2540/release)Writing library : VirtualDubMod build 2540/release
VideoID : 0Format : MPEG-4 VisualFormat profile : Advanced [email protected] settings, BVOP : 2Format settings, QPel : NoFormat settings, GMC : No warppointsFormat settings, Matrix : Default (H.263)Codec ID : XVIDCodec ID/Hint : XviDDuration : 6mn 26sBit rate : 959 KbpsWidth : 592 pixelsHeight : 480 pixelsDisplay aspect ratio : 5:4Frame rate : 25.000 fpsColor space : YUVChroma subsampling : 4:2:0Bit depth : 8 bitsScan type : ProgressiveCompression mode : LossyBits/(Pixel*Frame) : 0.135Stream size : 44.2 MiB (83%)Writing library : XviD 64
AudioID : 1Format : MPEG AudioFormat version : Version 1Format profile : Layer 3Codec ID : 55Codec ID/Hint : MP3Duration : 6mn 26sBit rate mode : ConstantBit rate : 192 KbpsChannel(s) : 2 channelsSampling rate : 44.1 KHzCompression mode : LossyStream size : 8.85 MiB (17%)Alignment : Split accross interleavesInterleave, duration : 40 ms (1.00 video frame)Interleave, preload duration : 500 ms

Скриншоты

Other forum [Profile] [PM]
Display posts from previous:    
Reply to topic

The time now is: Today 14:56

All times are GMT + 3 Hours



You cannot post new topics in this forum
You cannot reply to topics in this forum
You cannot edit your posts in this forum
You cannot delete your posts in this forum
You cannot vote in polls in this forum
You cannot attach files in this forum
You cannot download files in this forum