Today is a free download without charge Download

1453 Завоевание / Fetih 1453 (Фарук Аксой) [2012 г., боевик, драма, приключения, военный, история, HDRip]

Reply to topic
 
Author
Message

sassad ®

Gender:

Longevity: 10 years

Posts: 1214

Location: Галич

Торрент-статистика

Post 09-Sep-2012 16:15

[Quote]

1453 Завоевание / Fetih 1453- Год выпуска: 2012
Страна: Турция
Жанр: боевик, драма, приключения, военный, история
Продолжительность: 160 мин. / 02:40
Перевод: Любительский (двухголосый закадровый)
Режиссер: Фарук Аксой
Продюссер: Фарук Аксой, Фарук Метин
Сценарий: Атилла Энгин, Irfan Saruhan
Бюджет: $17 000 000
Премьера в мире: 16 февраля 2012
8.60 (31 679)

В ролях: Деврим Эвин, Ибрагим Челиккол, Дилек Сербест, Ченгиз Коскун, Эрден Алкан, Реджеп Актуг
Описание: Историческая драма о завоевании Стамбула султаном Мехмедом II.
Качество: HDRip
Формат: AVI
Видео кодек: XviD
Аудио кодек: AC3
Видео: XviD, 1677 Кбит/с, 720х304
Аудио: AC3, 2 ch, 192 Кбит/с

M.I

Код:
General
    Complete name                            : D:\1453.Zavoevanie.2012.HDRip.avi
    Format                                   : AVI
    Format/Info                              : Audio Video Interleave
    File size                                : 2.05 GiB
    Duration                                 : 2h 35mn
    Overall bit rate                         : 1 879 Kbps
    Writing application                      : VirtualDubMod 1.5.10.2 (build 2540/release)
    Writing library                          : VirtualDubMod build 2540/release
    Video
    ID                                       : 0
    Format                                   : MPEG-4 Visual
    Format profile                           : Advanced [email protected]
    Format settings, BVOP                    : 2
    Format settings, QPel                    : No
    Format settings, GMC                     : No warppoints
    Format settings, Matrix                  : Default (MPEG)
    Codec ID                                 : XVID
    Codec ID/Hint                            : XviD
    Duration                                 : 2h 35mn
    Bit rate                                 : 1 677 Kbps
    Width                                    : 720 pixels
    Height                                   : 304 pixels
    Display aspect ratio                     : 2.35:1
    Frame rate                               : 25.000 fps
    Color space                              : YUV
    Chroma subsampling                       : 4:2:0
    Bit depth                                : 8 bits
    Scan type                                : Progressive
    Compression mode                         : Lossy
    Bits/(Pixel*Frame)                       : 0.306
    Stream size                              : 1.83 GiB (89%)
    Writing library                          : XviD 1.2.1 (UTC 2008-12-04)
    Audio
    ID                                       : 1
    Format                                   : AC-3
    Format/Info                              : Audio Coding 3
    Mode extension                           : CM (complete main)
    Codec ID                                 : 2000
    Duration                                 : 2h 35mn
    Bit rate mode                            : Constant
    Bit rate                                 : 192 Kbps
    Channel(s)                               : 2 channels
    Channel positions                        : Front: L R
    Sampling rate                            : 48.0 KHz
    Bit depth                                : 16 bits
    Compression mode                         : Lossy
    Delay relative to video                  : 24ms
    Stream size                              : 214 MiB (10%)
    Alignment                                : Split accross interleaves
    Interleave, duration                     : 40 ms (1.00 video frame)
    Interleave, preload duration             : 500 ms

Скриншоты

           

_________________
Other forum [Profile] [PM]
Display posts from previous:    
Reply to topic

The time now is: Today 03:43

All times are GMT + 3 Hours



You cannot post new topics in this forum
You cannot reply to topics in this forum
You cannot edit your posts in this forum
You cannot delete your posts in this forum
You cannot vote in polls in this forum
You cannot attach files in this forum
You cannot download files in this forum