Today is a free download without charge Download

Однажды вечером (Франгиз Курбанова) [1985, СССР, мультфильм для взрослых, WEBRip]

Reply to topic
 
Author
Message

Omen ®

Longevity: 7 years 11 months

Posts: 181087

Торрент-статистика

Post 06-Aug-2016 01:00

[Quote]

Однажды вечером
Страна: СССР
Жанр: мультфильм для взрослых
Продолжительность: 00:07:38
Год выпуска: 1985
Перевод: Не требуется
Русские субтитры: нет
Режиссёр: Франгиз Курбанова
Сценарист: Рустам Ибрагимбеков
Описание: Однажды вечером пришли гости...
Техника - двойная экспозиция разных фактур с живыми актёрами.
Доп. информация: ВКФ 1986, Алма-Ата - Приз жюри "за оригинальное решение актуальной темы"
Качество: WEBRip
Формат: AVI
Видео: 830 kbps, 512х400 (1.280), 25.000 fps, MPEG-4 Visual (XviD)
Аудио: 192 kbps, 44.1 kHz, 16 bits, 2 channels, AC-3
Субтитры: отсутствуют

Подробные технические данные

GeneralComplete name : Однажды вечером. 1985.aviFormat : AVIFormat/Info : Audio Video InterleaveFile size : 56.3 MiBDuration : 7mn 38sOverall bit rate : 1 032 KbpsWriting application : VirtualDubMod 1.5.10.3 | www.virtualdub-fr.org || (build 2550/release)Writing library : VirtualDubMod build 2550/release
VideoID : 0Format : MPEG-4 VisualFormat profile : Advanced [email protected] settings, BVOP : 1Format settings, QPel : NoFormat settings, GMC : No warppointsFormat settings, Matrix : CustomCodec ID : XVIDCodec ID/Hint : XviDDuration : 7mn 38sBit rate : 830 KbpsWidth : 512 pixelsHeight : 400 pixelsDisplay aspect ratio : 1.280Frame rate : 25.000 fpsColor space : YUVChroma subsampling : 4:2:0Bit depth : 8 bitsScan type : ProgressiveCompression mode : LossyBits/(Pixel*Frame) : 0.162Stream size : 45.3 MiB (80%)Writing library : XviD 65
AudioID : 1Format : AC-3Format/Info : Audio Coding 3Mode extension : CM (complete main)Format settings, Endianness : BigCodec ID : 2000Duration : 7mn 38sBit rate mode : ConstantBit rate : 192 KbpsChannel(s) : 2 channelsChannel positions : Front: L RSampling rate : 44.1 KHzBit depth : 16 bitsCompression mode : LossyStream size : 10.5 MiB (19%)Alignment : Split accross interleavesInterleave, duration : 40 ms (1.00 video frame)Interleave, preload duration : 500 ms

Скриншоты

Other forum [Profile] [PM]
Display posts from previous:    
Reply to topic

The time now is: Today 19:35

All times are GMT + 3 Hours



You cannot post new topics in this forum
You cannot reply to topics in this forum
You cannot edit your posts in this forum
You cannot delete your posts in this forum
You cannot vote in polls in this forum
You cannot attach files in this forum
You cannot download files in this forum