Today is a free download without charge Download

Зайка Петя и волшебный рояль (Михаил Шаров) [1973, СССР, кукольный фильм, WEBRip]

Reply to topic
 
Author
Message

Omen ®

Longevity: 7 years 11 months

Posts: 181087

Торрент-статистика

Post 03-Aug-2016 01:00

[Quote]

Зайка Петя и волшебный рояль
Страна: СССР
Жанр: кукольный фильм
Продолжительность: 00:15:05
Год выпуска: 1973
Перевод: Не требуется
Русские субтитры: нет
Режиссёр: Михаил Шаров
Описание: В лесу открылась музыкальная школа. Всех зверят записали на обучение, не приняли только волка Вову и медвежонка Мишутку. Лиса Лариска советует им в отместку украсть из школы рояль...
Качество: WEBRip
Формат: AVI
Видео: 1695 kbps, 592х464 (1.276), 25.000 fps, MPEG-4 Visual (XviD)
Аудио: 96 kbps, 44.1 kHz, 1 channel, MPEG Audio (MP3)
Субтитры: отсутствуют

Подробные технические данные

GeneralComplete name : Зайка Петя и волшебный рояль.aviFormat : AVIFormat/Info : Audio Video InterleaveFile size : 194 MiBDuration : 15mn 5sOverall bit rate : 1 801 KbpsWriting library : VirtualDub build 35491/release
VideoID : 0Format : MPEG-4 VisualFormat profile : Advanced [email protected] settings, BVOP : 2Format settings, QPel : NoFormat settings, GMC : No warppointsFormat settings, Matrix : Default (H.263)Codec ID : XVIDCodec ID/Hint : XviDDuration : 15mn 5sBit rate : 1 695 KbpsWidth : 592 pixelsHeight : 464 pixelsDisplay aspect ratio : 1.276Frame rate : 25.000 fpsColor space : YUVChroma subsampling : 4:2:0Bit depth : 8 bitsScan type : ProgressiveCompression mode : LossyBits/(Pixel*Frame) : 0.247Stream size : 183 MiB (94%)Writing library : XviD 64
AudioID : 1Format : MPEG AudioFormat version : Version 1Format profile : Layer 3Codec ID : 55Codec ID/Hint : MP3Duration : 15mn 5sBit rate mode : ConstantBit rate : 96.0 KbpsChannel(s) : 1 channelSampling rate : 44.1 KHzCompression mode : LossyStream size : 10.3 MiB (5%)Alignment : Split accross interleavesInterleave, duration : 40 ms (1.00 video frame)Interleave, preload duration : 500 ms

Скриншоты

Other forum [Profile] [PM]
Display posts from previous:    
Reply to topic

The time now is: Today 16:24

All times are GMT + 3 Hours



You cannot post new topics in this forum
You cannot reply to topics in this forum
You cannot edit your posts in this forum
You cannot delete your posts in this forum
You cannot vote in polls in this forum
You cannot attach files in this forum
You cannot download files in this forum