Today is a free download without charge Download

Смешарики. Легенда о золотом драконе (Денис Чернов) [2016, Мультфильм, приключения, комедия, HDRip]

Reply to topic
 
Author
Message

Omen ®

Longevity: 7 years 11 months

Posts: 181087

Торрент-статистика

Post 02-Aug-2016 01:00

[Quote]

Смешарики. Легенда о золотом драконе
Выпущено: Россия / Art Pictures Studio
Жанр: мультфильм, приключения, комедия
Год выпуска: 2016
Продолжительность: 01:20:17
Перевод: Не требуется
Cубтитры: нет
Режиссер: Денис Чернов
В ролях: Михаил Черняк, Сергей Мардарь, Антон Виноградов, Владимир Постников, Светлана Письмиченко, Вадим Бочанов, Гарик Харламов, Дмитрий Нагиев, Елена Шульман, Владимир Маслаков
Описание: Выдающийся учёный и его команда отправляются в самое сердце диких джунглей, где их ждут опасные приключения, свирепые туземцы и расхитители гробниц, до зубов вооруженные гаджетами.
Сэмпл: http://multi-up.com/1112269
Качество видео: HDRip
Исходник: Смешарики.2016.BDRip.1080p.ExKinoRay
Формат видео: AVI
Видео: 640x272 (2.35:1), 23.976 fps, XviD build 65 ~1102 kbps avg, 0.26 bit/pixel
Аудио: 48 kHz, AC3 Dolby Digital, 2/0 (L,R) ch, ~192 kbps - Лицензия Blu Ray Rus
Rip by Ториял

MediaInfo

Format : AVI
Format/Info : Audio Video Interleave
File size : 748 MiB
Duration : 1h 20mn
Overall bit rate : 1 304 Kbps
Writing application : VirtualDubMod 1.5.10.3 | www.virtualdub-fr.org || (build 2550/release)
Writing library : VirtualDubMod build 2550/release
Video
ID : 0
Format : MPEG-4 Visual
Format profile : Advanced [email protected]
Format settings, BVOP : 1
Format settings, QPel : No
Format settings, GMC : No warppoints
Format settings, Matrix : Custom
Codec ID : XVID
Codec ID/Hint : XviD
Duration : 1h 20mn
Bit rate : 1 102 Kbps
Width : 640 pixels
Height : 272 pixels
Display aspect ratio : 2.35:1
Frame rate : 23.976 (23976/1000) fps
Color space : YUV
Chroma subsampling : 4:2:0
Bit depth : 8 bits
Scan type : Progressive
Compression mode : Lossy
Bits/(Pixel*Frame) : 0.264
Stream size : 633 MiB (85%)
Writing library : XviD 65
Audio
ID : 1
Format : AC-3
Format/Info : Audio Coding 3
Mode extension : CM (complete main)
Format settings, Endianness : Big
Codec ID : 2000
Duration : 1h 20mn
Bit rate mode : Constant
Bit rate : 192 Kbps
Channel(s) : 2 channels
Channel positions : Front: L R
Sampling rate : 48.0 KHz
Frame rate : 31.250 fps (1536 spf)
Compression mode : Lossy
Stream size : 110 MiB (15%)
Alignment : Split accross interleaves
Interleave, duration : 42 ms (1.00 video frame)
Interleave, preload duratio : 500 ms

Скриншоты

Other forum [Profile] [PM]
Display posts from previous:    
Reply to topic

The time now is: Today 09:25

All times are GMT + 3 Hours



You cannot post new topics in this forum
You cannot reply to topics in this forum
You cannot edit your posts in this forum
You cannot delete your posts in this forum
You cannot vote in polls in this forum
You cannot attach files in this forum
You cannot download files in this forum