Today is a free download without charge Download

Большая игра / State of Play (Кевин МакДональд / Kevin Macdonald) [2009 г., Триллер, драма, криминал, BDRip 1080p]

Reply to topic
 
Author
Message

Delia ®

Gender:

Longevity: 11 years

Posts: 1821

Торрент-статистика

Post 08-Sep-2012 15:46

[Quote]

Большая игра / State of Play«Find The Truth»--
Год выпуска: 2009
Страна: США , Великобритания , Франция
Жанр: триллер, драма, криминал, детектив, ...
Продолжительность: 02:07:01
Перевод: Профессиональный (дублированный)
Субтитры: Russian , Russian (for), English, English (SDH) (srt)
Режиссер: Кевин МакДональд
Сценарий: Мэттью Майкл Карнахан, Тони Гилрой, Билли Рэй, ...
Продюсер: Тим Беван, Эрик Феллнер, Эндрю Хауптман, ...
Рассел Кроу (Cal McAffrey), Бен Аффлек (Stephen Collins), Рэйчел МакАдамс (Della Frye), Хелен Миррен (Cameron Lynne), Робин Райт (Anne Collins), Джейсон Бейтман (Dominic Foy), Джефф Дэниелс (George Fergus), Майкл Беррессе (Robert Bingham), Гарри Дж. Ленникс (Detective Bell), Джош Мостел (Pete), Майкл Уэстон (Hank), Бэрри Шебака Хенли (Gene Stavitz)
Описание: Американский журналист Маккэффри расследует серию жестоких убийств. Одной из жертв становится любовница преуспевающего конгрессмена Коллинза, давнего друга Маккэффри. Улики открывают перед журналистом цепочку чудовищных заговоров, ведущих в высшие политические круги страны. Люди, с которыми ему придется иметь дело, ворочают миллиардами долларов и не привыкли, когда в их дела вмешиваются посторонние.-
MPAA: PG-13 - Детям до 13 лет просмотр не желателен--Качество: BDRip
Формат: MKV
Видео кодек: H.264 (AVC)
Аудио кодеk: AC3
Видео: 1920x816 (2.35:1), 23.976 fps, AVC, 8 063 Kbps
Аудио: AC3, 448 Kbps, 48.0 KHz, 6 ch
Аудио #2: AC3, 448 Kbps, 48.0 KHz, 6 ch

МедиаИнфо

Код:
General
Complete name                    : State of Play(2009)BDRip-F.HD.mkv
Format                           : Matroska
File size                        : 7.95 GiB
Duration                         : 2h 7mn
Overall bit rate                 : 8 955 Kbps
Encoded date                     : UTC 2012-09-08 11:35:29
Writing application              : mkvmerge v5.4.0 ('Piper') built on Mar 10 2012 13:34:39
Writing library                  : libebml v1.2.3 + libmatroska v1.3.0
Video
ID                               : 1
Format                           : AVC
Format/Info                      : Advanced Video Codec
Format profile                   : [email protected]
Format settings, CABAC           : Yes
Format settings, ReFrames        : 9 frames
Muxing mode                      : Container [email protected]
Codec ID                         : V_MPEG4/ISO/AVC
Duration                         : 2h 7mn
Bit rate                         : 8 063 Kbps
Width                            : 1 920 pixels
Height                           : 816 pixels
Display aspect ratio             : 2.35:1
Frame rate                       : 23.976 fps
Color space                      : YUV
Chroma subsampling               : 4:2:0
Bit depth                        : 8 bits
Scan type                        : Progressive
Bits/(Pixel*Frame)               : 0.215
Stream size                      : 6.99 GiB (88%)
Writing library                  : x264 core 125 r2208 d9d2288
Encoding settings                : cabac=1 / ref=9 / deblock=1:-2:-2 / analyse=0x3:0x113 / me=umh / subme=10 / psy=1 / psy_rd=1.00:0.15 / mixed_ref=1 / me_range=32 / chroma_me=1 / trellis=2 / 8x8dct=1 / cqm=0 / deadzone=21,11 / fast_pskip=0 / chroma_qp_offset=1 / threads=6 / lookahead_threads=1 / sliced_threads=0 / nr=0 / decimate=1 / interlaced=0 / bluray_compat=0 / constrained_intra=0 / bframes=9 / b_pyramid=2 / b_adapt=2 / b_bias=0 / direct=3 / weightb=1 / open_gop=0 / weightp=2 / keyint=240 / keyint_min=23 / scenecut=40 / intra_refresh=0 / rc=2pass / mbtree=0 / bitrate=8063 / ratetol=1.0 / qcomp=0.75 / qpmin=0 / qpmax=69 / qpstep=4 / cplxblur=20.0 / qblur=0.5 / ip_ratio=1.35 / pb_ratio=1.25 / aq=2:0.85
Color primaries                  : BT.709-5, BT.1361, IEC 61966-2-4, SMPTE RP177
Transfer characteristics         : BT.709-5, BT.1361
Matrix coefficients              : BT.709-5, BT.1361, IEC 61966-2-4 709, SMPTE RP177
Audio #1
ID                               : 2
Format                           : AC-3
Format/Info                      : Audio Coding 3
Mode extension                   : CM (complete main)
Codec ID                         : A_AC3
Duration                         : 2h 7mn
Bit rate mode                    : Constant
Bit rate                         : 448 Kbps
Channel(s)                       : 6 channels
Channel positions                : Front: L C R, Side: L R, LFE
Sampling rate                    : 48.0 KHz
Bit depth                        : 16 bits
Stream size                      : 407 MiB (5%)
Language                         : Russian
Audio #2
ID                               : 3
Format                           : AC-3
Format/Info                      : Audio Coding 3
Mode extension                   : CM (complete main)
Codec ID                         : A_AC3
Duration                         : 2h 7mn
Bit rate mode                    : Constant
Bit rate                         : 448 Kbps
Channel(s)                       : 6 channels
Channel positions                : Front: L C R, Side: L R, LFE
Sampling rate                    : 48.0 KHz
Bit depth                        : 16 bits
Stream size                      : 407 MiB (5%)
Text #1
ID                               : 4
Format                           : UTF-8
Codec ID                         : S_TEXT/UTF8
Codec ID/Info                    : UTF-8 Plain Text
Language                         : Russian
Text #2
ID                               : 5
Format                           : UTF-8
Codec ID                         : S_TEXT/UTF8
Codec ID/Info                    : UTF-8 Plain Text
Title                            : for
Language                         : Russian
Text #3
ID                               : 6
Format                           : UTF-8
Codec ID                         : S_TEXT/UTF8
Codec ID/Info                    : UTF-8 Plain Text
Text #4
ID                               : 7
Format                           : UTF-8
Codec ID                         : S_TEXT/UTF8
Codec ID/Info                    : UTF-8 Plain Text
Title                            : SDH

Знаете ли Вы, что...

Фильм должен был воссоединить главных актеров «Бойцовского клуба» Эдварда Нортона и Брэда Питта. Однако Питт покинул проекта из-за забастовки сценаристов, он был заменен Расселом Кроу. Уход Питта задержал старт съемок и участие Эдварда Нортона в картине стало невозможным, так как начиналась работа над лентой «Листья травы». Место Нортона занял Бен Аффлек.
На ранних стадиях разработки режиссером фильма значился Эдвард Цвик.
После ухода Питта и до того, как в проект попал Рассел Кроу, на роль Кэла МакАфри рассматривались Джонни Депп, Николас Кейдж и Том Хэнкс.
Сцены в больнице в конце фильма были сняты в штабе Департамента жилищного строительства и городского развития США.
Режиссерами «Большой игры» могли стать Брайан Де Пальма, Мартин Кэмпбелл, Энг Ли, Ричард Линклейтер и Джим Джармуш.
Рассел Кроу перед тем как подписать контракт, показал сценарий Ридли Скотту, чтобы вместе с ним решить, стоит ли ему сниматься в этом фильме.
Все сцены с Хелен Миррен были отсняты за 4 дня.
На стене в кабинете МакАфри можно заметить фотографию настоящих репортеров Washington Post Боба Вудворда и Карла Бернстина, сыгравших главную роль в освещении знаменитого уотергейтского скандала.
В начальных сценах фильма звучит песня «The Night That Paddy Murphy Dies» группы Great Big Sea. Вокалист Great Big Sea Алан Дойл и Рассел Кроу являются хорошими друзьями.


Скриншоты

     
     

_________________
Человек – это канат, натянутый между животным и сверхчеловеком, – канат над пропастью.
В человеке ценно то, что он мост, а не цель. Фридрих Ницше
Other forum [Profile] [PM]
Display posts from previous:    
Reply to topic

The time now is: Today 10:19

All times are GMT + 3 Hours



You cannot post new topics in this forum
You cannot reply to topics in this forum
You cannot edit your posts in this forum
You cannot delete your posts in this forum
You cannot vote in polls in this forum
You cannot attach files in this forum
You cannot download files in this forum