Today is a free download without charge Download

Друзья познаются в беде (Михаил Шаров) [1972, СССР, кукольный фильм, WEBRip]

Reply to topic
 
Author
Message

Omen ®

Longevity: 7 years 11 months

Posts: 181087

Торрент-статистика

Post 01-Aug-2016 01:00

[Quote]

Друзья познаются в беде
Страна: СССР
Жанр: кукольный фильм
Продолжительность: 00:17:16
Год выпуска: 1972
Перевод: Не требуется
Русские субтитры: нет
Режиссёр: Михаил Шаров
Описание: Лиса Лариска, волк Вова и кот Васька ложно обвиняют зайку Петю в воровстве морковки с огорода. Они рассчитывают, что теперь все друзья от него отвернутся. Но друзья познаются в беде...
Качество: WEBRip
Формат: AVI
Видео: 1697 kbps, 592х464 (1.276), 25.000 fps, MPEG-4 Visual (XviD)
Аудио: 96 kbps, 44.1 kHz, 1 channel, MPEG Audio (MP3)
Субтитры: отсутствуют

Подробные технические данные

GeneralComplete name : Друзья познаются в беде.aviFormat : AVIFormat/Info : Audio Video InterleaveFile size : 223 MiBDuration : 17mn 16sOverall bit rate : 1 803 KbpsWriting library : VirtualDub build 35491/release
VideoID : 0Format : MPEG-4 VisualFormat profile : Advanced [email protected] settings, BVOP : 2Format settings, QPel : NoFormat settings, GMC : No warppointsFormat settings, Matrix : Default (H.263)Codec ID : XVIDCodec ID/Hint : XviDDuration : 17mn 16sBit rate : 1 697 KbpsWidth : 592 pixelsHeight : 464 pixelsDisplay aspect ratio : 1.276Frame rate : 25.000 fpsColor space : YUVChroma subsampling : 4:2:0Bit depth : 8 bitsScan type : ProgressiveCompression mode : LossyBits/(Pixel*Frame) : 0.247Stream size : 210 MiB (94%)Writing library : XviD 64
AudioID : 1Format : MPEG AudioFormat version : Version 1Format profile : Layer 3Codec ID : 55Codec ID/Hint : MP3Duration : 17mn 16sBit rate mode : ConstantBit rate : 96.0 KbpsChannel(s) : 1 channelSampling rate : 44.1 KHzCompression mode : LossyStream size : 11.8 MiB (5%)Alignment : Split accross interleavesInterleave, duration : 40 ms (1.00 video frame)Interleave, preload duration : 500 ms

Скриншоты

Other forum [Profile] [PM]
Display posts from previous:    
Reply to topic

The time now is: Today 20:12

All times are GMT + 3 Hours



You cannot post new topics in this forum
You cannot reply to topics in this forum
You cannot edit your posts in this forum
You cannot delete your posts in this forum
You cannot vote in polls in this forum
You cannot attach files in this forum
You cannot download files in this forum