Today is a free download without charge Download

Юморески. Выпуск № 2 (Валентин Караваев) [1974, СССР, мультфильм для взрослых, WEBRip]

Reply to topic
 
Author
Message

Omen ®

Longevity: 7 years 11 months

Posts: 181087

Торрент-статистика

Post 31-Jul-2016 01:00

[Quote]

Юморески. Выпуск № 2
Страна: СССР
Жанр: мультфильм для взрослых
Продолжительность: 00:07:49
Год выпуска: 1974
Режиссёр: Валентин Караваев
Описание: Второй выпуск юмористического альманаха посвящён экологии. Содержит три сюжета: "Пауза", "Открытие", "Оглянись вперёд".
Доп. информация:
Выпуск №1 - [url=viewtopic.php?t=2629645]http:///*spam*//forum/viewtopic.php?t=2629645[/url]
Выпуск №3 - [url=viewtopic.php?t=3245917]http:///*spam*//forum/viewtopic.php?t=3245917[/url]
Качество: WEBRip
Формат: AVI
Видео: 915 kbps, 608х480 (5:4), 25.000 fps, MPEG-4 Visual (XviD)
Аудио: 128 kbps, 44.1 kHz, 2 channels, MPEG Audio (MP3)
Субтитры: отсутствуют

Подробные технические данные

GeneralComplete name : Юморески 2 (1974).aviFormat : AVIFormat/Info : Audio Video InterleaveFile size : 58.9 MiBDuration : 7mn 49sOverall bit rate : 1 053 KbpsWriting library : VirtualDub build 35491/release
VideoID : 0Format : MPEG-4 VisualFormat profile : Advanced [email protected] settings, BVOP : 2Format settings, QPel : NoFormat settings, GMC : No warppointsFormat settings, Matrix : Default (H.263)Codec ID : XVIDCodec ID/Hint : XviDDuration : 7mn 49sBit rate : 915 KbpsWidth : 608 pixelsHeight : 480 pixelsDisplay aspect ratio : 5:4Frame rate : 25.000 fpsColor space : YUVChroma subsampling : 4:2:0Bit depth : 8 bitsScan type : ProgressiveCompression mode : LossyBits/(Pixel*Frame) : 0.125Stream size : 51.2 MiB (87%)Writing library : XviD 64
AudioID : 1Format : MPEG AudioFormat version : Version 1Format profile : Layer 3Codec ID : 55Codec ID/Hint : MP3Duration : 7mn 49sBit rate mode : ConstantBit rate : 128 KbpsChannel(s) : 1 channelSampling rate : 44.1 KHzCompression mode : LossyStream size : 7.14 MiB (12%)Alignment : Split accross interleavesInterleave, duration : 40 ms (1.00 video frame)Interleave, preload duration : 501 ms

Скриншоты

Other forum [Profile] [PM]
Display posts from previous:    
Reply to topic

The time now is: Today 18:29

All times are GMT + 3 Hours



You cannot post new topics in this forum
You cannot reply to topics in this forum
You cannot edit your posts in this forum
You cannot delete your posts in this forum
You cannot vote in polls in this forum
You cannot attach files in this forum
You cannot download files in this forum