Today is a free download without charge Download

Цветы войны / The Flowers of War (Jin líng shí san chai) (Чжан Имоу / Zhang Yimou) [2011, Гонконг, Китай, драма, военный, история, BDRip 720p]

Reply to topic
 
Author
Message

Delia ®

Gender:

Longevity: 10 years

Posts: 1821

Торрент-статистика

Post 07-Sep-2012 12:25

[Quote]

Цветы войны / Jin ling shi san chai--
Год выпуска: 2011
Страна: Китай , Гонконг
Жанр: драма, военный, история, ...
Продолжительность: 02:25:59
Перевод: Профессиональный (дублированный)
Субтитры: Russian , english (srt)
Режиссер: Чжан Имоу
Сценарий: Лю Хэн, Гелинь Ян
Продюсер: Чжан Вэйпин, Чаоинь Ден, Уильям Конг, ...
-
Кристиан Бэйл (John Miller), Ни Ни (Yu Mo), Синю Чжан (Shu), Тяньюань Хуанг (George Chen), Хань Ситин (Yi), Дуду Чжан (Ling), Тун Давэй (Major Li), Ацуро Ватабэ (Colonel Hasegawa), Цао Кэфань (Mr. Meng), Юань Яньчунци (Mosquito), Джиа Сунь (Hua), Yuemin Li (Dou)
Описание: Фильм основан на реальных событиях. Действия разворачиваются в период японо-китайской войны. Главный герой, американский гробовщик Джон, направляется в Католическую церковь в Нанкине, чтобы подготовить священника к похоронам. По прибытию он оказывается единственным мужчиной среди учениц монастыря и проституток из соседнего борделя в эпицентре военных действий. Оказавшись в таком положении, он выдаёт себя за священника и пытается спасти обе группы от ужасов вторжения японской армии&3;---
MPAA: R - Лицам до 17 лет обязательно присутствие взрослого--Примечание: Не хватает около 20 секунд перевода!
Сцена с перестрелкой минуты на 3-4, в которой нет перевода на 20 секунд)

Качество: BDRip
Формат: MKV
Видео кодек: H.264 (AVC)
Аудио кодеk: AC3
Видео: 1280x544 (2.35:1), 24.000 fps, AVC, 5 247 Kbps
Аудио: AC3, 384 Kbps, 48.0 KHz, 6 ch ( дубляж )
Аудио #2:Аудио: Russian: , AC3, 2 h, (L,R,), 48 кГц, 192 kbps avg | Одноголосый закадровый |den904|

МедиаИнфо

Код:
General
Complete name                    : The.Flowers.Of.War.2011.BluRay.720p.AC3.x264-CHD..mkv
Format                           : Matroska
File size                        : 5.93 GiB
Duration                         : 2h 25mn
Overall bit rate                 : 5 820 Kbps
Encoded date                     : UTC 2012-09-07 08:28:28
Writing application              : mkvmerge v5.4.0 ('Piper') built on Mar 10 2012 13:34:39
Writing library                  : libebml v1.2.3 + libmatroska v1.3.0
Video
ID                               : 1
Format                           : AVC
Format/Info                      : Advanced Video Codec
Format profile                   : [email protected]
Format settings, CABAC           : Yes
Format settings, ReFrames        : 12 frames
Muxing mode                      : Container [email protected]
Codec ID                         : V_MPEG4/ISO/AVC
Duration                         : 2h 25mn
Bit rate                         : 5 247 Kbps
Width                            : 1 280 pixels
Height                           : 544 pixels
Display aspect ratio             : 2.35:1
Frame rate                       : 24.000 fps
Color space                      : YUV
Chroma subsampling               : 4:2:0
Bit depth                        : 8 bits
Scan type                        : Progressive
Bits/(Pixel*Frame)               : 0.314
Stream size                      : 5.23 GiB (88%)
Title                            : The.Flowers.Of.War.2011.BluRay.720p.AC3.x264-CHD
Writing library                  : x264 core 120 r2146 bcd41db
Encoding settings                : cabac=1 / ref=12 / deblock=1:-3:-3 / analyse=0x3:0x113 / me=umh / subme=10 / psy=1 / psy_rd=1.00:0.05 / mixed_ref=1 / me_range=32 / chroma_me=1 / trellis=2 / 8x8dct=1 / cqm=0 / deadzone=21,11 / fast_pskip=0 / chroma_qp_offset=-2 / threads=8 / sliced_threads=0 / nr=0 / decimate=1 / interlaced=0 / bluray_compat=0 / constrained_intra=0 / bframes=6 / b_pyramid=2 / b_adapt=2 / b_bias=0 / direct=3 / weightb=1 / open_gop=0 / weightp=2 / keyint=250 / keyint_min=24 / scenecut=40 / intra_refresh=0 / rc=2pass / mbtree=0 / bitrate=5247 / ratetol=1.0 / qcomp=0.70 / qpmin=0 / qpmax=69 / qpstep=4 / cplxblur=20.0 / qblur=0.5 / ip_ratio=1.40 / pb_ratio=1.30 / aq=2:0.90
Language                         : Chinese
Audio #1
ID                               : 2
Format                           : AC-3
Format/Info                      : Audio Coding 3
Mode extension                   : CM (complete main)
Codec ID                         : A_AC3
Duration                         : 2h 25mn
Bit rate mode                    : Constant
Bit rate                         : 384 Kbps
Channel(s)                       : 6 channels
Channel positions                : Front: L C R, Side: L R, LFE
Sampling rate                    : 48.0 KHz
Bit depth                        : 16 bits
Stream size                      : 401 MiB (7%)
Language                         : Russian
Audio #2
ID                               : 3
Format                           : AC-3
Format/Info                      : Audio Coding 3
Mode extension                   : CM (complete main)
Codec ID                         : A_AC3
Duration                         : 2h 25mn
Bit rate mode                    : Constant
Bit rate                         : 192 Kbps
Channel(s)                       : 2 channels
Channel positions                : Front: L R
Sampling rate                    : 48.0 KHz
Bit depth                        : 16 bits
Stream size                      : 200 MiB (3%)
Title                            : |den904|
Language                         : Russian
Text #1
ID                               : 4
Format                           : UTF-8
Codec ID                         : S_TEXT/UTF8
Codec ID/Info                    : UTF-8 Plain Text
Language                         : Russian
Text #2
ID                               : 5
Format                           : UTF-8
Codec ID                         : S_TEXT/UTF8
Codec ID/Info                    : UTF-8 Plain Text

Знаете ли Вы, что...

Рабочее название картины — «13 женщин Нанкина».
В 2011 году Чжан Имоу выбрал палестинского режиссера Анну-Мари Ясир как свою первую протеже и пригласил ее работать вместе с ним на съемочной площадке в процессе производства фильма и также сотрудничать с ним во время монтажа и постпродакшн.
Фильм был снят за 164 дня с 18-часовым ежедневным рабочим графиком.
Официальное представление Китая в категории «Лучший фильм» на иностранном языке на 84-ой церемонии награждения Оскар 2012.
Стивен Спилберг порекомендовал Кристиана Бэйла на главную роль.
Второй фильм, полностью финансируемый Китаем, с голливудской звездой в главной роли.


Скриншоты

     
     

_________________
Человек – это канат, натянутый между животным и сверхчеловеком, – канат над пропастью.
В человеке ценно то, что он мост, а не цель. Фридрих Ницше
Other forum [Profile] [PM]
Display posts from previous:    
Reply to topic

The time now is: Today 13:38

All times are GMT + 3 Hours



You cannot post new topics in this forum
You cannot reply to topics in this forum
You cannot edit your posts in this forum
You cannot delete your posts in this forum
You cannot vote in polls in this forum
You cannot attach files in this forum
You cannot download files in this forum