Today is a free download without charge Download

Воздержание / Restraint (Дэвид Денин) (Драма, Триллер 2008) DVDRip

Reply to topic
 
Author
Message

KirovSOFT ®

Gender:

Longevity: 8 years 8 months

Posts: 998

Location: Кировская область -Оричи

Торрент-статистика

Post 06-Sep-2012 08:37

[Quote]

Воздержание / Restraint ( Дэвид Денин Драма, Триллер 2008) DVDRip
«Seclusion. Seduction. Survival.»
-
Русское название: Воздержание
Оригинальное название: Restraint
Год выпуска: 2008
Страна: Австралия
Жанр: Драма, Триллер
Описание фильма:
Молодые супруги останавливаются на бензоколонке, у них нет денег, чтобы расплатиться. Возникает конфликт в результате, которого хозяин бензоколонки убит. Парочка пускается в бега. Они проникают в красивый уединенный дом с великолепным прудом. И захватывают в заложники владельца этого дома, богатого парня у которого психические проблемы, он боится открытого пространства. Ну а дальше классика жанра – уединение, соблазнение, борьба за жизнь..
Режиссер: Дэвид Денин
Актеры: Филип Холдер, Питер Дейвис, Кейт Робинсон, Нат Джонс, Алисса МакКлелланд, Тереза Палмер, Трэвис Фиммел, Стивен Мойер
Продолжительность: 01:27:00
Перевод: Многоголосый закадровый
Релиз группа:

Дата мировой премьеры: 17 мая 2007
Видеокодек: Xvid
Битрейт видео: ~1 769 Kbps
Размер кадра: 720 х 384
Качество видео: DVDRip
Аудио: 48 kHz, AC3 Dolby Digital, 3/2 (L,C,R,l,r) + LFE ch, ~448 kbps (Русский)

MI

General
Complete name : E:\Vozderzhanie.2008.P.DVDRip.avi
Format : AVI
Format/Info : Audio Video Interleave
File size : 1.36 GiB
Duration : 1h 27mn
Overall bit rate : 2 227 Kbps
Writing application : VirtualDubMod 1.5.10.2 (build 2542/release)
Writing library : VirtualDubMod build 2542/release
Video
ID : 0
Format : MPEG-4 Visual
Format profile : Advanced [email protected]
Format settings, BVOP : 2
Format settings, QPel : No
Format settings, GMC : No warppoints
Format settings, Matrix : Default (MPEG)
Muxing mode : Packed bitstream
Codec ID : XVID
Codec ID/Hint : XviD
Duration : 1h 27mn
Bit rate : 1 769 Kbps
Width : 704 pixels
Height : 384 pixels
Display aspect ratio : 1.85:1
Frame rate : 25.000 fps
Color space : YUV
Chroma subsampling : 4:2:0
Bit depth : 8 bits
Scan type : Progressive
Compression mode : Lossy
Bits/(Pixel*Frame) : 0.262
Stream size : 1.08 GiB (79%)
Writing library : XviD 1.2.0.dev47 (UTC 2006-11-01)
Audio
ID : 1
Format : AC-3
Format/Info : Audio Coding 3
Mode extension : CM (complete main)
Format settings, Endianness : Big
Codec ID : 2000
Duration : 1h 27mn
Bit rate mode : Constant
Bit rate : 448 Kbps
Channel(s) : 6 channels
Channel positions : Front: L C R, Side: L R, LFE
Sampling rate : 48.0 KHz
Bit depth : 16 bits
Compression mode : Lossy
Stream size : 281 MiB (20%)
Alignment : Split accross interleaves
Interleave, duration : 40 ms (1.00 video frame)
Interleave, preload duration : 500 ms
Скриншоты:        

_________________


Last edited by KirovSOFT on 2012-09-06 18:05; edited 1 time in total
Other forum [Profile] [PM]
Display posts from previous:    
Reply to topic

The time now is: Today 10:41

All times are GMT + 3 Hours



You cannot post new topics in this forum
You cannot reply to topics in this forum
You cannot edit your posts in this forum
You cannot delete your posts in this forum
You cannot vote in polls in this forum
You cannot attach files in this forum
You cannot download files in this forum