Today is a free download without charge Download

Джунгли зовут! В поисках Марсупилами / Sur la piste du Marsupilami (Ален Шаба) [2012 г., комедия, приключения, семейный, BDRip720p]

Reply to topic
 
Author
Message

sassad ®

Gender:

Longevity: 10 years

Posts: 1214

Location: Галич

Торрент-статистика

Post 05-Sep-2012 22:57

[Quote]

Джунгли зовут! В поисках Марсупилами / Sur la piste du Marsupilami- Год выпуска: 2012
Страна: Франция, Бельгия
Жанр: комедия, приключения, семейный
Продолжительность: 105 мин. / 01:45
Перевод: Профессиональный(дублированный) лицензия
Режиссер: Ален Шаба
В ролях: Жамель Деббуз, Ален Шаба, Фред Тесто, Ламбер Вильсон, Жеральдин Накаш, Лия Кебеде, Патрик Тимси, Жак Вебер, Айсса Майга, Далип Син
Роли дублировали: Владимир Антоник, Александр Груздев, Анна Денисова
Продюссер: Амандин Било, Ален Шаба, Кристин Руксель
Сценарий: Андрэ Франкен, Ален Шаба, Джереми Донер
Бюджет: $1 280 734
Премьера в мире: 4 апреля 2012
5.80 (682)

Описание: Cпасти карьеру некогда знаменитого телеведущего Дэна Джеральдо может лишь одно — сенсация. В поисках жареных фактов журналист отправляется в таинственную страну Паломбию. С помощью неутомимого местного авантюриста Паблито он выходит на след самого загадочного существа на Земле — рыжего и пушистого, сумчатого и хвостатого зверя Марсупилами. Обаятельнейшее животное каким-то непостижимым образом связано с тайной вечной молодости, и на него объявлена настоящая охота. Путешественникам придется спасти Марсупилами от безумных ученых, грозных военных, алчных браконьеров и прочих напастей, которые таят джунгли.
Качество: BDRip720p
Формат: MKV
Видео кодек: H.26x
Аудио кодек: DTS
Видео: MPEG-4 AVC, 6500 Кбит/с, 1280x534, 23.976 Кадр/с
Аудио: Russian: DTS, 755 kb/s (6 ch) / French: DTS, 1510 kb/s (6 ch)

M.I

Код:
General
Unique ID : 250260818746230341928874341676830704503 (0xBC467B0047B10BAE8F98DE32EF704377)
Complete name : Dzhungli.zovut.V.poiskah.Marsupilami.2012.D.BDRip.720p.IRONCLUB.mkv
Format : Matroska
Format version : Version 2
File size : 6.40 GiB
Duration : 1h 44mn
Overall bit rate : 8 767 Kbps
Movie name : IRONCLUB
Encoded date : UTC 2012-09-05 14:38:20
Writing application : mkvmerge v4.9.1 ('Ich will') сборка от Jul 11 2011 23:53:15
Writing library : libebml v1.2.1 + libmatroska v1.1.1
Video
ID : 1
Format : AVC
Format/Info : Advanced Video Codec
Format profile : [email protected]
Format settings, CABAC : Yes
Format settings, ReFrames : 12 frames
Codec ID : V_MPEG4/ISO/AVC
Duration : 1h 44mn
Bit rate : 6 500 Kbps
Width : 1 280 pixels
Height : 534 pixels
Display aspect ratio : 2.40:1
Frame rate : 24.000 fps
Color space : YUV
Chroma subsampling : 4:2:0
Bit depth : 8 bits
Scan type : Progressive
Bits/(Pixel*Frame) : 0.396
Stream size : 4.62 GiB (72%)
Title : Sur.La.Piste.du.Marsupilami.2012.720p.BluRay.x264.DTS-HDChina
Writing library : x264 core 125 r2208 d9d2288
Encoding settings : cabac=1 / ref=12 / deblock=1:-3:-3 / analyse=0x3:0x113 / me=umh / subme=10 / psy=1 / psy_rd=1.10:0.05 / mixed_ref=1 / me_range=32 / chroma_me=1 / trellis=2 / 8x8dct=1 / cqm=0 / deadzone=21,11 / fast_pskip=0 / chroma_qp_offset=-3 / threads=18 / lookahead_threads=3 / sliced_threads=0 / nr=0 / decimate=0 / interlaced=0 / bluray_compat=0 / constrained_intra=0 / bframes=8 / b_pyramid=2 / b_adapt=2 / b_bias=0 / direct=3 / weightb=1 / open_gop=0 / weightp=2 / keyint=240 / keyint_min=24 / scenecut=40 / intra_refresh=0 / rc_lookahead=120 / rc=2pass / mbtree=1 / bitrate=6500 / ratetol=1.0 / qcomp=0.70 / qpmin=0 / qpmax=69 / qpstep=4 / cplxblur=20.0 / qblur=0.5 / ip_ratio=1.20 / aq=1:0.90
Language : English
Default : Yes
Forced : Yes
Audio #1
ID : 2
Format : DTS
Format/Info : Digital Theater Systems
Codec ID : A_DTS
Duration : 1h 44mn
Bit rate mode : Constant
Bit rate : 755 Kbps
Channel(s) : 6 channels
Channel positions : Front: L C R, Side: L R, LFE
Sampling rate : 48.0 KHz
Bit depth : 24 bits
Compression mode : Lossy
Stream size : 564 MiB (9%)
Title : DTS 5.1 @ 768 kbps - Dub, R5
Language : Russian
Default : Yes
Forced : Yes
Audio #2
ID : 3
Format : DTS
Format/Info : Digital Theater Systems
Codec ID : A_DTS
Duration : 1h 44mn
Bit rate mode : Constant
Bit rate : 1 510 Kbps
Channel(s) : 6 channels
Channel positions : Front: L C R, Side: L R, LFE
Sampling rate : 48.0 KHz
Bit depth : 16 bits
Compression mode : Lossy
Stream size : 1.10 GiB (17%)
Title : DTS 5.1 @ 1536 kbps
Language : French
Default : No
Forced : No
Menu
00:00:00.000 : en:00:00:00.000
00:02:36.792 : en:00:02:36.792
00:06:54.625 : en:00:06:54.625
00:16:24.000 : en:00:16:24.000
00:19:47.208 : en:00:19:47.208
00:23:25.583 : en:00:23:25.583
00:33:22.917 : en:00:33:22.917
00:38:21.750 : en:00:38:21.750
00:41:51.708 : en:00:41:51.708
00:42:48.042 : en:00:42:48.042
00:45:06.750 : en:00:45:06.750
00:54:54.708 : en:00:54:54.708
00:56:40.542 : en:00:56:40.542
01:01:02.417 : en:01:01:02.417
01:05:57.500 : en:01:05:57.500
01:12:11.083 : en:01:12:11.083
01:18:22.667 : en:01:18:22.667
01:29:50.417 : en:01:29:50.417
01:36:55.625 : en:01:36:55.625
01:38:30.958 : en:01:38:30.958
-

Скриншоты

       
-

_________________


Last edited by sassad on 2012-09-07 09:59; edited 2 times in total
Other forum [Profile] [PM]
Display posts from previous:    
Reply to topic

The time now is: Today 06:43

All times are GMT + 3 Hours



You cannot post new topics in this forum
You cannot reply to topics in this forum
You cannot edit your posts in this forum
You cannot delete your posts in this forum
You cannot vote in polls in this forum
You cannot attach files in this forum
You cannot download files in this forum