Today is a free download without charge Download

30 дней ночи / 30 Days of Night (Дэвид Слэйд) [1080p] [2007 г., ужасы, триллер, BDRip]

Reply to topic
 
Author
Message

Delia ®

Gender:

Longevity: 11 years

Posts: 1821

Торрент-статистика

Post 03-Sep-2012 21:13

[Quote]

30 дней ночи / 30 Days of Night«Какова цена увидеть рассвет?»--
Год выпуска: 2007
Страна: США , Новая Зеландия
Жанр: ужасы, триллер, ...
Продолжительность: 01:53:05
Перевод: Профессиональный (дублированный)
Субтитры: Russian (2V), english
Режиссер: Дэвид Слэйд
Сценарий: Стив Нилс, Стюарт Битти, Брайан Нельсон, ...
Продюсер: Сэм Рэйми, Роберт Тейперт, Тед Адамс, ...
Джош Хартнетт (Eben Oleson), Мелисса Джордж (Stella Oleson), Дэнни Хьюстон (Marlow), Бен Фостер (The Stranger), Марк Бун Джуниор (Beau Brower), Марк Рендалл (Jake Oleson), Эмбер Сейнсбури (Denise), Ману Беннетт (Billy Kitka), Меган Фрэнич (Iris), Джоэль Тобек (Doug Hertz), Элизабет Хоторн (Lucy Ikos), Нэтаниэл Лис (Carter Davies)
Описание: Каждый год на 30 дней маленький город Бэрроу на Аляске погружается во тьму. Арктическая ночь — вещь вполне нормальная для этих мест. Но вот однажды, шериф городка Олсон начинает подозревать, что на этот раз тридцатидневный сумрак не пройдет так гладко. Вампиры подготавливают кровавый рейд на Бэрроу...--

MPAA: R - Лицам до 17 лет обязательно присутствие взрослого--Качество: BDRip
Формат: MKV
Видео кодек: H.264 (AVC)
Аудио кодеk: AC3
Видео: 1920x800 (2.40:1), 23.976 fps, AVC, 5 151 Kbps
Аудио: AC3, 384 Kbps, 48.0 KHz, 6 ch

МедиаИнфо

Код:
General
Complete name                    : 30.dnej.nochi.2007.BDRop-F.HD.mkv
Format                           : Matroska
File size                        : 4.37 GiB
Duration                         : 1h 53mn
Overall bit rate                 : 5 531 Kbps
Encoded date                     : UTC 2012-09-03 17:28:01
Writing application              : mkvmerge v5.4.0 ('Piper') built on Mar 10 2012 13:34:39
Writing library                  : libebml v1.2.3 + libmatroska v1.3.0
Video
ID                               : 1
Format                           : AVC
Format/Info                      : Advanced Video Codec
Format profile                   : [email protected]
Format settings, CABAC           : Yes
Format settings, ReFrames        : 5 frames
Muxing mode                      : Container [email protected]
Codec ID                         : V_MPEG4/ISO/AVC
Duration                         : 1h 53mn
Bit rate                         : 5 151 Kbps
Width                            : 1 920 pixels
Height                           : 800 pixels
Display aspect ratio             : 2.40:1
Frame rate                       : 23.976 fps
Color space                      : YUV
Chroma subsampling               : 4:2:0
Bit depth                        : 8 bits
Scan type                        : Progressive
Bits/(Pixel*Frame)               : 0.140
Stream size                      : 3.98 GiB (91%)
Writing library                  : x264 core 125 r2208 d9d2288
Encoding settings                : cabac=1 / ref=5 / deblock=1:0:0 / analyse=0x3:0x113 / me=umh / subme=10 / psy=1 / psy_rd=1.00:0.07 / mixed_ref=1 / me_range=32 / chroma_me=1 / trellis=2 / 8x8dct=1 / cqm=0 / deadzone=21,11 / fast_pskip=0 / chroma_qp_offset=1 / threads=6 / lookahead_threads=1 / sliced_threads=0 / nr=0 / decimate=1 / interlaced=0 / bluray_compat=0 / constrained_intra=0 / bframes=8 / b_pyramid=2 / b_adapt=2 / b_bias=0 / direct=3 / weightb=1 / open_gop=0 / weightp=2 / keyint=240 / keyint_min=23 / scenecut=40 / intra_refresh=0 / rc=2pass / mbtree=0 / bitrate=5151 / ratetol=1.0 / qcomp=0.70 / qpmin=0 / qpmax=69 / qpstep=4 / cplxblur=20.0 / qblur=0.5 / ip_ratio=1.40 / pb_ratio=1.30 / aq=1:0.85
Color primaries                  : BT.709-5, BT.1361, IEC 61966-2-4, SMPTE RP177
Transfer characteristics         : BT.709-5, BT.1361
Matrix coefficients              : BT.709-5, BT.1361, IEC 61966-2-4 709, SMPTE RP177
Audio
ID                               : 2
Format                           : AC-3
Format/Info                      : Audio Coding 3
Mode extension                   : CM (complete main)
Codec ID                         : A_AC3
Duration                         : 1h 53mn
Bit rate mode                    : Constant
Bit rate                         : 384 Kbps
Channel(s)                       : 6 channels
Channel positions                : Front: L C R, Side: L R, LFE
Sampling rate                    : 48.0 KHz
Bit depth                        : 16 bits
Stream size                      : 311 MiB (7%)
Language                         : Russian
Text #1
ID                               : 3
Format                           : UTF-8
Codec ID                         : S_TEXT/UTF8
Codec ID/Info                    : UTF-8 Plain Text
Title                            : R5
Language                         : Russian
Text #2
ID                               : 4
Format                           : UTF-8
Codec ID                         : S_TEXT/UTF8
Codec ID/Info                    : UTF-8 Plain Text
Title                            : Kinomania
Language                         : Russian
Text #3
ID                               : 5
Format                           : UTF-8
Codec ID                         : S_TEXT/UTF8
Codec ID/Info                    : UTF-8 Plain Text

Знаете ли Вы, что...

Съёмочный период: 14 августа — 23 октября 2006 года в Новой Зеландии


Скриншоты

     
     
     

_________________
Человек – это канат, натянутый между животным и сверхчеловеком, – канат над пропастью.
В человеке ценно то, что он мост, а не цель. Фридрих Ницше
Other forum [Profile] [PM]
Display posts from previous:    
Reply to topic

The time now is: Today 19:44

All times are GMT + 3 Hours



You cannot post new topics in this forum
You cannot reply to topics in this forum
You cannot edit your posts in this forum
You cannot delete your posts in this forum
You cannot vote in polls in this forum
You cannot attach files in this forum
You cannot download files in this forum