Today is a free download without charge Download

Вольф Мессинг: видевший сквозь время / 1 - 16 серии из 16 (Владимир Краснопольский, Валерий Усков) [2009 г., драма, история, DVDRip]

Reply to topic
 
Author
Message

centrashi ®

Gender:

Longevity: 9 years 9 months

Posts: 51

Location: Украина

Торрент-статистика

Post 03-Sep-2012 21:13

[Quote]

Вольф Мессинг: видевший сквозь время (1 - 16 серии из 16)-Год выпуска: 2009
Страна: Россия
Жанр: драма, история
Продолжительность: 16 х ~ 00:47:00
Режиссер: Владимир Краснопольский, Валерий Усков
В ролях: Тара Амирханова, Михаил Горевой, Роман Гречишкин, Владимир Долинский, Андрей Ильин, Вячеслав Корниченко, Вероника Ицкович, Евгений Князев, Виталий Кудрявцев, Юрий Нифонтов
Описание: Мессинг родился в последний год 19 века, чтобы стать одной из главных загадочных и судьбоносных личностей двадцатого века. Мальчик из бедной еврейской семьи был вынужден рано начать самостоятельную жизнь. Он отправился в Германию, где брался за самую черную работу. Его сверхъестественные телепатические способности обнаружились совершенно случайно при почти мистических обстоятельствах. Веймарская Германия, ущемленная последействиями Первой мировой войны, являлась местом, которое притягивала шарлатанов и мистиков, великих ученых и маньяков. Мессинг начал свою карьеру в Берлинском паноптикуме. Его уникальные способности признавали Эйнштейн и Фрейд. Хаос Веймарской республики сменяется железным строем новой великой Германии. И здесь Мессинг оказывается востребованным как никогда прежде. В 1937 году, когда Третий Рейх находится в зените своей славы, Мессинг предсказывает Тысячелетнему Рейху скорый бесславный финал в случае нападения на восток. И веря в собственное предсказание, с захватом Гитлером Польши, Мессинг пересекает границу Советского Союза. Так жизнь разделилась на две равные половины.- | (Семпл)-Вольф Мессинг: видевший сквозь время (англ. Volf Messing: seeing through time) — cериал, телеканал "Россия", в сериале Евгений Князев играет главного героя — предсказателя и телепата, способного подчинять себе людей. Это естественно — слишком загадочная фигура, слишком много загадок в его биографии.
Мессинг родился в последний год XIX века, чтобы стать одной из главных загадочных и судьбоносных личностей века двадцатого. Мальчик из бедной еврейской семьи был вынужден рано начать самостоятельную жизнь. Он отправился в Германию, где брался за самую черную работу. Его сверхъестественные телепатические способности обнаружились совершенно случайно при почти мистических обстоятельствах. Веймарская Германия, ущемленная последствиями Первой мировой войны, являлась местом, которое притягивало шарлатанов и мистиков, великих ученых и маньяков. Мессинг начал свою карьеру в Берлинском паноптикуме. Его уникальные способности признавали Эйнштейн и Фрейд.

Качество: DVDRip (DVD9/Собеседница)
Формат: AVI /СОВМЕСТИМО С БЫТОВЫМИ ПЛЕЕРАМИ/ Размер 2х DVD5
Видео: 688x384 (1.79:1), 25 fps, XviD MPEG-4 ~1500-1300 kbps avg
Аудио: (rus) 48 kHz, AC3 Dolby Digital, 2/0 (L,R) ch, ~192.00 kbps avg
Код:
Полное имя                       : D:\скчаное с торрента\Volf.Missing.2009_[zim2001]\Volf.Missing.2009.002_[torrents.ru].avi
Формат                           : AVI
Формат/Информация                : Audio Video Interleave
Размер файла                     : 507 Мбайт
Продолжительность                : 46 м.
Общий поток                      : 1521 Кбит/сек
Видео
Идентификатор                    : 0
Формат                           : MPEG-4 Visual
Профиль формата                  : Advanced [email protected]
Параметр BVOP формата            : 1
Параметр QPel формата            : Нет
Параметр GMC формата             : Без точки перехода
Параметр матрицы формата         : Выборочная
Идентификатор кодека             : XVID
Идентификатор кодека/Подсказка   : XviD
Продолжительность                : 46 м.
Битрейт                          : 1319 Кбит/сек
Ширина                           : 688 пикс.
Высота                           : 384 пикс.
Соотношение сторон               : 16:9
Частота кадров                   : 25,000 кадр/сек
Цветовое пространство            : YUV
Подвыборка цветности             : 4:2:0
Битовая глубина                  : 8 бит
Тип развёртки                    : Прогрессивная
Метод сжатия                     : С потерями
Бит/(Пиксели*Кадры)              : 0.200
Размер потока                    : 440 Мбайт (87%)
Библиотека кодирования           : XviD 1.2.1 (UTC 2008-12-04)
Аудио
Идентификатор                    : 1
Формат                           : AC-3
Формат/Информация                : Audio Coding 3
Расширение режима                : CM (complete main)
Идентификатор кодека             : 2000
Продолжительность                : 46 м.
Вид битрейта                     : Постоянный
Битрейт                          : 192 Кбит/сек
Каналы                           : 2 канала
Расположение каналов             : Front: L R
Частота                          : 48,0 КГц
Битовая глубина                  : 16 бит
Метод сжатия                     : С потерями
Размер потока                    : 64,0 Мбайт (13%)
Выравнивание                     : Разделение по промежуткам
Продолжительность промежутка     : 40  мс. (1,00 видеокадр)
Время предзагрузки промежутка    : 500 ms

Скриншоты

               

_________________
Бороться и искать, найти и не сдваться.
Other forum [Profile] [PM]
Display posts from previous:    
Reply to topic

The time now is: Today 20:06

All times are GMT + 3 Hours



You cannot post new topics in this forum
You cannot reply to topics in this forum
You cannot edit your posts in this forum
You cannot delete your posts in this forum
You cannot vote in polls in this forum
You cannot attach files in this forum
You cannot download files in this forum