Today is a free download without charge Download

Сорока (Владимир Самсонов) [1982, СССР, мультфильм, TVRip]

Reply to topic
 
Author
Message

Omen ®

Longevity: 7 years 11 months

Posts: 181087

Торрент-статистика

Post 18-Jul-2016 01:00

[Quote]

Сорока
Страна: СССР
Жанр: мультфильм
Продолжительность: 00:01:42
Год выпуска: 1982
Перевод: Не требуется
Русские субтитры: нет
Режиссёр: Владимир Самсонов
Музыка: Раймонд Паулс
Описание: Этюд про сороку и ёлочную игрушку.
Качество: TVRip
Формат: AVI
Видео: 2398 kbps, 576х432 (4:3), 25.000 fps, MPEG-4 Visual (XviD)
Аудио: 96 kbps, 44.1 kHz, 1 channel, MPEG Audio (MP3)
Субтитры: отсутствуют

Подробные технические данные

GeneralComplete name : Сорока 1982.aviFormat : AVIFormat/Info : Audio Video InterleaveFile size : 30.7 MiBDuration : 1mn 42sOverall bit rate : 2 504 Kbps
VideoID : 0Format : MPEG-4 VisualFormat settings, BVOP : 1Format settings, QPel : NoFormat settings, GMC : No warppointsFormat settings, Matrix : Default (H.263)Codec ID : DX50Codec ID/Hint : DivX 5Duration : 1mn 42sBit rate : 2 398 KbpsWidth : 576 pixelsHeight : 432 pixelsDisplay aspect ratio : 4:3Frame rate : 25.000 fpsColor space : YUVChroma subsampling : 4:2:0Bit depth : 8 bitsScan type : ProgressiveCompression mode : LossyBits/(Pixel*Frame) : 0.385Stream size : 29.4 MiB (96%)Writing library : DivX 5.2.1 Beta (UTC 2004-09-08)
AudioID : 1Format : MPEG AudioFormat version : Version 1Format profile : Layer 3Codec ID : 55Codec ID/Hint : MP3Duration : 1mn 42sBit rate mode : ConstantBit rate : 96.0 KbpsChannel(s) : 1 channelSampling rate : 44.1 KHzCompression mode : LossyStream size : 1.18 MiB (4%)Alignment : Split accross interleavesInterleave, duration : 40 ms (1.01 video frame)Interleave, preload duration : 500 ms

Скриншоты

Other forum [Profile] [PM]
Display posts from previous:    
Reply to topic

The time now is: Today 10:38

All times are GMT + 3 Hours



You cannot post new topics in this forum
You cannot reply to topics in this forum
You cannot edit your posts in this forum
You cannot delete your posts in this forum
You cannot vote in polls in this forum
You cannot attach files in this forum
You cannot download files in this forum