Today is a free download without charge Download

Натюрморт (Владимир Самсонов) [1981, СССР, мультфильм, TVRip]

Reply to topic
 
Author
Message

Omen ®

Longevity: 7 years 11 months

Posts: 181087

Торрент-статистика

Post 18-Jul-2016 01:00

[Quote]

Натюрморт
Страна: СССР
Жанр: мультфильм
Продолжительность: 00:01:18
Год выпуска: 1981
Перевод: Не требуется
Русские субтитры: нет
Режиссёр: Владимир Самсонов
Описание: Один из фильмов Владимира Самсонова, выполненный в технике живописи на стекле. Этюд на музыку Скрябина.
Качество: TVRip
Формат: AVI
Видео: 1197 kbps, 656х544 (1.206), 25.000 fps, MPEG-4 Visual (XviD)
Аудио: 96 kbps, 44.1 kHz, 1 channel, MPEG Audio (MP3)
Субтитры: отсутствуют

Подробные технические данные

GeneralComplete name : Натюрморт 1981.aviFormat : AVIFormat/Info : Audio Video InterleaveFile size : 12.2 MiBDuration : 1mn 18sOverall bit rate : 1 303 KbpsWriting application : VirtualDubMod 1.5.10.2 (build 2540/release)Writing library : VirtualDub build 35491/release
VideoID : 0Format : MPEG-4 VisualFormat profile : [email protected] settings, BVOP : NoFormat settings, QPel : NoFormat settings, GMC : No warppointsFormat settings, Matrix : Default (H.263)Codec ID : XVIDCodec ID/Hint : XviDDuration : 1mn 18sBit rate : 1 197 KbpsWidth : 656 pixelsHeight : 544 pixelsDisplay aspect ratio : 1.206Frame rate : 25.000 fpsColor space : YUVChroma subsampling : 4:2:0Bit depth : 8 bitsScan type : ProgressiveCompression mode : LossyBits/(Pixel*Frame) : 0.134Stream size : 11.2 MiB (92%)Writing library : XviD 64
AudioID : 1Format : MPEG AudioFormat version : Version 1Format profile : Layer 3Codec ID : 55Codec ID/Hint : MP3Duration : 1mn 18sBit rate mode : ConstantBit rate : 96.0 KbpsChannel(s) : 1 channelSampling rate : 44.1 KHzCompression mode : LossyStream size : 917 KiB (7%)Alignment : Split accross interleavesInterleave, duration : 40 ms (1.01 video frame)Interleave, preload duration : 500 ms

Скриншоты

Other forum [Profile] [PM]
Display posts from previous:    
Reply to topic

The time now is: Today 11:14

All times are GMT + 3 Hours



You cannot post new topics in this forum
You cannot reply to topics in this forum
You cannot edit your posts in this forum
You cannot delete your posts in this forum
You cannot vote in polls in this forum
You cannot attach files in this forum
You cannot download files in this forum