Today is a free download without charge Download

Отцовский инстинкт (Алексей Волов) [2014, Россия, боевик, детектив, криминал, HDTV 1080i]

Reply to topic
 
Author
Message

Omen ®

Longevity: 8 years 10 months

Posts: 181086

Торрент-статистика

Post 16-Jul-2016 01:00

[Quote]

Отцовский инстинкт- -Страна: Россия
Жанр: боевик, детектив, криминал
Год выпуска: 2014
Производство: «"Форвард-фильм", "Кинозавод"»
Продолжительность: 01:32:00
Оригинальная аудиодорожка: русский
Cубтитры: нет-Режиссер: Алексей Волов-В ролях:
Анатолий Узденский, Ольга Иванова (IV), Константин Стрельников, Сергей Колесников (II), Сергей Комаров (II), Максим Пинскер,
Егор Баринов, Игорь Волков, Николай Амосов, Алексей Агрызков, Елена Борисова, Святослав Чирков, Елена Фёдорова-Описание:
Фильм о Петре Набокове по прозвищу «Апостол», одном из ведущих героев телесериала «Ментовские войны». Кто-то объявил охоту на Апостола, покушение следует за покушением. Набоков не знает, кто за этим стоит, но должен разобраться, ведь на кону не только его жизнь, но и судьба недавно найденной им дочери Милы. Апостол считает, что его решил убрать Пантелей, с которым у них сложился конфликт из-за бизнес-интересов. А может быть это месть давнего врага Апостола — Градуса, который, отсидев 20 лет, вышел на свободу. Апостол не может рисковать жизнью дочери и решает отправить её за границу. И, едва Мила уезжает, в дом Апостола врываются киллеры. Лишь хорошая реакция и большой жизненный опыт позволяют Набокову остаться в живых и обезвредить преступников. Он решается на неожиданный шаг, о котором не рассказывает никому, даже дочери и начальнику своей охраны Реутову. Апостол с помощью своих старых друзей начинает собственное расследование. Правда, которую ему предстоит открыть, окажется намного страшнее, чем он мог себе представить…-Возраст: 16+-Качество: HDTV (1080i)
Формат: TS
Видео кодек: AVC
Аудио кодек: MPEG Audio 2

Видео: AVC, 1920 х 1080 (16:9), 25,000 кадр/сек, 7 580 Кбит/сек, 0.146 bit/pixel
Аудио: MPEG Audio 2, 48000 Hz, 192 Kbps, 2 канала
-

MediaInfo

General
ID : 1 (0x1)
Complete name : D:\Раздачи\Отцовский инстинкт HDTV (1080i)\Отцовский инстинкт HDTV (1080i).ts
Format : MPEG-TS
File size : 5.29 GiB
Duration : 1h 32mn
Overall bit rate mode : Variable
Overall bit rate : 8 221 Kbps
Video
ID : 256 (0x100)
Menu ID : 1234 (0x4D2)
Format : AVC
Format/Info : Advanced Video Codec
Format profile : [email protected]
Format settings, CABAC : Yes
Format settings, ReFrames : 3 frames
Codec ID : 27
Duration : 1h 32mn
Bit rate mode : Constant
Bit rate : 7 580 Kbps
Width : 1 920 pixels
Height : 1 080 pixels
Display aspect ratio : 16:9
Frame rate : 25.000 fps
Standard : PAL
Color space : YUV
Chroma subsampling : 4:2:0
Bit depth : 8 bits
Scan type : Progressive
Bits/(Pixel*Frame) : 0.146
Stream size : 4.78 GiB (90%)
Color range : Limited
Color primaries : BT.709
Transfer characteristics : BT.709
Matrix coefficients : BT.709
Audio #1
ID : 257 (0x101)
Menu ID : 1234 (0x4D2)
Format : MPEG Audio
Format version : Version 1
Format profile : Layer 2
Codec ID : 3
Duration : 1h 32mn
Bit rate mode : Constant
Bit rate : 192 Kbps
Channel(s) : 2 channels
Sampling rate : 48.0 KHz
Compression mode : Lossy
Stream size : 126 MiB (2%)
Language : English
Audio #2
ID : 258 (0x102)
Menu ID : 1234 (0x4D2)
Format : MPEG Audio
Format version : Version 1
Format profile : Layer 2
Codec ID : 3
Duration : 1h 32mn
Bit rate mode : Constant
Bit rate : 192 Kbps
Channel(s) : 2 channels
Sampling rate : 48.0 KHz
Compression mode : Lossy
Stream size : 126 MiB (2%)
Language : English

Скриншоты


-Раздаю до первых 5-ти скачавших, на раздачи не возвращаюсь...-
Other forum [Profile] [PM]
Display posts from previous:    
Reply to topic

The time now is: Today 14:02

All times are GMT + 3 Hours



You cannot post new topics in this forum
You cannot reply to topics in this forum
You cannot edit your posts in this forum
You cannot delete your posts in this forum
You cannot vote in polls in this forum
You cannot attach files in this forum
You cannot download files in this forum