Today is a free download without charge Download

Молодой Волкодав 12 серий (Олег Фомин) [2007 г., Фэнтэзи, DVDRip]

Reply to topic
 
Author
Message

centrashi ®

Gender:

Longevity: 9 years

Posts: 51

Location: Украина

Торрент-статистика

Post 01-Sep-2012 23:30

[Quote]

Молодой Волкодав DVDRip 12 серий
Год выпуска: 2007
Жанр: Фэнтэзи
Продолжительность: 12х45 минут
Режиссер: Олег Фомин
В ролях: Александр Бухаров, Эльвира Болгова, Анна Азарова, Андрей Чадов, Наталья Егорова, Александр Яцко, Саид Дашук-Нигматуллин, Егор Тимцуник, Максим Шишков, Александр Соловьев (младший)
Описание: Сериал "Молодой Волкодав" посвящен тем событиям, которые начались после истребления рода Серых Псов. Это история о том, как Волкодав был продан в рабство, как пережил изнурительную каторгу в Самоцветных горах и как после поединка с надсмотрщиком Волком выбрался на свободу.
«Молодой Волкодав» — это 12 серий увлекательных приключений молодого венна, написанных именитыми телесценаристами Аленой Званцовой и Дмитрием Константиновым («Простые истины», «Семейные тайны», «Воровка», «Небо и земля», «Линии судьбы») по мотивам романа Марии Семёновой «Волкодав. Истовик-камень».
Доп. информация: 25 июля 2005 года начались съёмки 12-серийного фильма «Молодой Волкодав». «Двое мальчишек из деревни Серых Псов, друзья Волкодав и Волчонок, получают пророчество: один из них станет великим воином и убьет другого». Картина рассказывает о юности Волкодава, являясь в некотором роде приквелом к вышедшему в 2006 году полнометражному фэнтэзи «Волкодав» Николая Лебедева по роману Марии Семёновой. Съёмки сериала проходили в тех же декорациях Галирада, в которых снимался «Волкодав». Юного Волкодава, так же, как и зрелого, играет Александр Бухаров. Актёру 30 лет, его возраст где-то между юным Волкодавом и зрелым, так что усилиями визажистов он смог сыграть обе роли.
Качество: DVDRip
Формат: AVI
Видео кодек: XviD
Аудио кодек: MP3
Внимание! Формат последних четырех серий несколько отличается от первых восьми. При просмотре на метровой плазме отличий в качестве не заметил, но для гурманов может быть важно.
Данные для первых 8 серий:
Видео: 640x352 (1.82:1), 25 fps, XviD Final 1.0.3 (build 37) ~909 kbps avg, 0.16 bit/pixel
Аудио: 48 kHz, MPEG Layer 3, 2 ch, ~128.00 kbps avg
Данные для серий с 9 по 12:
Видео: 528x304 (1.74:1), 25 fps, XviD build 47 ~879 kbps avg, 0.22 bit/pixel
Аудио: 48 kHz, MPEG Layer 3, 2 ch, ~174.52 kbps avg

MediaInfo

Код:
Полное имя                       : D:\скчаное с торрента\Волкодав\Molodoy.Volkodav.1.(rus).KaMo.avi
Формат                           : AVI
Формат/Информация                : Audio Video Interleave
Размер файла                     : 350 Мбайт
Продолжительность                : 46 м.
Общий поток                      : 1048 Кбит/сек
Название фильма                  : Molodoy volkodav (2006)
Режиссёр                         : KaMo®
Тема                             : Molodoy volkodav (2006)
Видео
Идентификатор                    : 0
Формат                           : MPEG-4 Visual
Профиль формата                  : [email protected]
Параметр BVOP формата            : 2
Параметр QPel формата            : Нет
Параметр GMC формата             : Без точки перехода
Параметр матрицы формата         : Default (MPEG)
Идентификатор кодека             : XVID
Идентификатор кодека/Подсказка   : XviD
Продолжительность                : 46 м.
Битрейт                          : 910 Кбит/сек
Ширина                           : 640 пикс.
Высота                           : 352 пикс.
Соотношение сторон               : 16:9
Частота кадров                   : 25,000 кадр/сек
Цветовое пространство            : YUV
Подвыборка цветности             : 4:2:0
Битовая глубина                  : 8 бит
Тип развёртки                    : Прогрессивная
Метод сжатия                     : С потерями
Бит/(Пиксели*Кадры)              : 0.162
Размер потока                    : 304 Мбайт (87%)
Библиотека кодирования           : XviD 1.0.3 (UTC 2004-12-20)
Аудио
Идентификатор                    : 1
Формат                           : MPEG Audio
Версия формата                   : Version 1
Профиль формата                  : Layer 3
Режим                            : Joint stereo
Расширение режима                : MS Stereo
Идентификатор кодека             : 55
Идентификатор кодека/Подсказка   : MP3
Продолжительность                : 46 м.
Вид битрейта                     : Постоянный
Битрейт                          : 128 Кбит/сек
Каналы                           : 2 канала
Частота                          : 48,0 КГц
Метод сжатия                     : С потерями
Размер потока                    : 42,8 Мбайт (12%)
Выравнивание                     : Соединение по промежуткам
Продолжительность промежутка     : 40  мс. (1,00 видеокадр)
Время предзагрузки промежутка    : 480 ms

Скриншоты

           

_________________
Бороться и искать, найти и не сдваться.
Other forum [Profile] [PM]
Display posts from previous:    
Reply to topic

The time now is: Today 23:25

All times are GMT + 3 Hours



You cannot post new topics in this forum
You cannot reply to topics in this forum
You cannot edit your posts in this forum
You cannot delete your posts in this forum
You cannot vote in polls in this forum
You cannot attach files in this forum
You cannot download files in this forum