Today is a free download without charge Download

Притон / La planque (2011) [720p] BDRip

Reply to topic
 
Author
Message

KirovSOFT ®

Gender:

Longevity: 9 years

Posts: 998

Location: Кировская область -Оричи

Торрент-статистика

Post 01-Sep-2012 21:45

[Quote]

Притон / La planque (2011) [720p] BDRip- Русское название: Притон
Оригинальное название: La planque
Производство: Франция
Год выпуска: 2011
Жанр: Криминал
Описание фильма:
Три незадачливых бандита при ограблении банка срывают куш в 45 миллионов евро. Спасаясь от преследования, они находят пристанище в полицейском участке, где их принимают за коллег.
Режиссер: Аким Искер
Актеры: Джалил Насери, Жиль Беломи, Асен Тити, Гийом Вердье, Дани Вериссимо, Антуан Баслер Али Йайа
Продолжительность: 01:29:06
Перевод: Профессиональный двуголосый
Озвучка: НТВ+

Видеокодек: MPEG-4 AVC/H.264
Битрейт видео: ~5348 Кбит/с
Размер кадра: 1280x694
Качество видео: BDRip
Аудио:
1. AC3, 2 ch, 192 Кбит/с - русский
2. DTS, 6 ch, 1510 Кбит/с - французский

MediaInfo:

Общее
Уникальный идентификатор : 245304339443694777296383912153299870687 (0xB88BE5B44A87461E8C877456AFA4E3DF)
Полное имя : C:\Justlan\Притон\Priton.mkv
Формат : Matroska
Версия формата : Version 2
Размер файла : 4,38 Гбайт
Продолжительность : 1 ч. 29 м.
Общий поток : 7032 Кбит/сек
Программа кодирования : mkvmerge v4.9.1 ('Ich will') сборка от Jul 11 2011 23:53:15
Библиотека кодирования : libebml v1.2.1 + libmatroska v1.1.1
Видео
Идентификатор : 1
Формат : AVC
Формат/Информация : Advanced Video Codec
Профиль формата : [url=mailto:[email protected]][email protected][/url]
Параметр CABAC формата : Да
Параметр ReFrames формата : 12 кадров
Идентификатор кодека : V_MPEG4/ISO/AVC
Продолжительность : 1 ч. 29 м.
Битрейт : 5348 Кбит/сек
Ширина : 1280 пикселей
Высота : 694 пикселя
Соотношение сторон : 16:9
Частота кадров : 24,000 кадра/сек
Цветовое пространство : YUV
Субдискретизация насыщенности : 4:2:0
Битовая глубина : 8 бит
Тип развёртки : Прогрессивная
Бит/(Пиксели*Кадры) : 0.251
Размер потока : 3,23 Гбайт (74%)
Библиотека кодирования : x264 core 120 r2164+656 2ff844c
Default : Да
Forced : Да
Основные цвета : BT.709-5, BT.1361, IEC 61966-2-4, SMPTE RP177
Характеристики трансфера : BT.709-5, BT.1361
Коэффициенты матрицы : BT.709-5, BT.1361, IEC 61966-2-4 709, SMPTE RP177
Аудио #1
Идентификатор : 2
Формат : AC-3
Формат/Информация : Audio Coding 3
Расширение режима : CM (complete main)
Идентификатор кодека : A_AC3
Продолжительность : 1 ч. 29 м.
Вид битрейта : Постоянный
Битрейт : 192 Кбит/сек
Каналы : 2 канала
Расположение каналов : Front: L R
Частота : 48,0 КГц
Битовая глубина : 16 бит
Метод сжатия : С потерями
Размер потока : 122 Мбайт (3%)
Заголовок : DD 2.0 @ 192 kbps - NTV+
Язык : Russian
Default : Да
Forced : Да
Аудио #2
Идентификатор : 3
Формат : DTS
Формат/Информация : Digital Theater Systems
Идентификатор кодека : A_DTS
Продолжительность : 1 ч. 29 м.
Вид битрейта : Постоянный
Битрейт : 1510 Кбит/сек
Каналы : 6 каналов
Расположение каналов : Front: L C R, Side: L R, LFE
Частота : 48,0 КГц
Битовая глубина : 24 бит
Метод сжатия : С потерями
Размер потока : 962 Мбайт (21%)
Заголовок : DTS 5.1 @ 1536 kbps
Язык : French
Default : Нет
Forced : Нет
Скриншоты:          
         

_________________
Other forum [Profile] [PM]
Display posts from previous:    
Reply to topic

The time now is: Today 20:26

All times are GMT + 3 Hours



You cannot post new topics in this forum
You cannot reply to topics in this forum
You cannot edit your posts in this forum
You cannot delete your posts in this forum
You cannot vote in polls in this forum
You cannot attach files in this forum
You cannot download files in this forum