Today is a free download without charge Download

Чистое искусство (Ренат Давлетьяров) [2016, Россия, триллер, детектив, WEB-DL 1080p] + Original Rus

Reply to topic
 
Author
Message

Omen ®

Longevity: 8 years 10 months

Posts: 181086

Торрент-статистика

Post 09-Jul-2016 15:00

[Quote]

Чистое искусство
Страна: Россия
Студия: Кинокомпания «Реал-Дакота»
Жанр: триллер, детектив
Год выпуска: 2016
Продолжительность: 01:28:25
Перевод: Не требуется
Cубтитры: нет
Оригинальная аудиодорожка: русский
Режиссер: Ренат Давлетьяров
В ролях: Анна Чиповская, Пётр Фёдоров, Константин Юшкевич, Илья Любимов, Дмитрий Брауэр, Александр Яценко, Алексей Барабаш, Леонид Мозговой, Людмила Чурсина, Анатолий Белый
Описание: «Ты живешь свою жизнь, думаешь про завтра и не знаешь, что кто-то чужой уже влез в твою жизнь и все в ней зачеркнул…»
Саша — известный фотограф. Она молода и красива. Неожиданно ее счастливая жизнь рушится. Она становится свидетелем загадочного убийства и тут же оказывается вовлеченной в криминальную аферу, связанную с живописью и большими деньгами. Теперь кажется, что весь мир против нее — за ней охотятся и хотят убить. Пытаясь понять, что с ней происходит, Саша не готова сдаваться. Движимая стремлением разгадать тайну, она начинает свое расследование…


Sample
Тип релиза: WEB-DL 1080p
Контейнер: MKV
Видео: MPEG4 AVC Video, H264, 16:9, 1920x1080, 25 fps, 4908 kbps
Аудио: Russian (AC3, 6 ch, 384 kbps, 16 bits, 48.0 KHz) - оригинал

MediaInfo

General
Unique ID : 181257500490573347353772119604754078338 (0x885CECBEA4372CFD93DC44F38E3F5A82)
Complete name : E:\Чистое искусство WEB-DL 1080p.mkv
Format : Matroska
Format version : Version 2
File size : 3.33 GiB
Duration : 1h 28mn
Overall bit rate : 5 399 Kbps
Encoded date : UTC 2016-07-08 20:41:53
Writing application : mkvmerge v8.3.0 ('Over the Horizon') 64bit
Writing library : libebml v1.3.1 + libmatroska v1.4.2
DURATION : 01:28:25.024000000
NUMBER_OF_FRAMES : 165782
NUMBER_OF_BYTES : 254641152
_STATISTICS_WRITING_APP : mkvmerge v8.3.0 ('Over the Horizon') 64bit
_STATISTICS_WRITING_DATE_UTC : 2016-07-08 20:41:53
_STATISTICS_TAGS : BPS DURATION NUMBER_OF_FRAMES NUMBER_OF_BYTES
Video
ID : 1
Format : AVC
Format/Info : Advanced Video Codec
Format profile : [email protected]
Format settings, CABAC : Yes
Format settings, ReFrames : 4 frames
Codec ID : V_MPEG4/ISO/AVC
Duration : 1h 28mn
Bit rate : 4 908 Kbps
Width : 1 920 pixels
Height : 1 080 pixels
Display aspect ratio : 16:9
Frame rate mode : Constant
Frame rate : 25.000 fps
Color space : YUV
Chroma subsampling : 4:2:0
Bit depth : 8 bits
Scan type : Progressive
Bits/(Pixel*Frame) : 0.095
Stream size : 3.03 GiB (91%)
Language : English
Default : Yes
Forced : No
Color primaries : BT.709
Transfer characteristics : BT.709
Matrix coefficients : BT.709
Audio
ID : 2
Format : AC-3
Format/Info : Audio Coding 3
Mode extension : CM (complete main)
Format settings, Endianness : Big
Codec ID : A_AC3
Duration : 1h 28mn
Bit rate mode : Constant
Bit rate : 384 Kbps
Channel count : 6 channels
Channel positions : Front: L C R, Side: L R, LFE
Sampling rate : 48.0 KHz
Bit depth : 16 bits
Compression mode : Lossy
Stream size : 243 MiB (7%)
Language : Russian
Default : Yes
Forced : No
Menu
00:00:00.000 : en:Глава 1
00:05:04.120 : en:Глава 2
00:10:42.360 : en:Глава 3
00:16:21.800 : en:Глава 4
00:22:30.120 : en:Глава 5
00:27:48.800 : en:Глава 6
00:33:45.240 : en:Глава 7
00:40:31.080 : en:Глава 8
00:45:46.080 : en:Глава 9
00:51:50.800 : en:Глава 10
00:57:30.240 : en:Глава 11
01:03:19.640 : en:Глава 12
01:08:44.280 : en:Глава 13
01:14:26.720 : en:Глава 14
01:20:06.720 : en:Глава 15

Скриншоты

Other forum [Profile] [PM]

Dracula

Longevity: 7 years 11 months

Posts: 11000

Торрент-статистика

Post 09-Jul-2016 15:15 (after 15 minutes)

Топик был перенесен из форума Зарубежное кино в форум Наше кино


Геннадич
 
Display posts from previous:    
Reply to topic

The time now is: Today 23:03

All times are GMT + 3 Hours



You cannot post new topics in this forum
You cannot reply to topics in this forum
You cannot edit your posts in this forum
You cannot delete your posts in this forum
You cannot vote in polls in this forum
You cannot attach files in this forum
You cannot download files in this forum