Today is a free download without charge Download

Короли игры, 1-12 серии из 12 (Максим Субботин, Валерий Рожнов, Вано Бурдули, Владимир Котт, Алексей Рудаков) [2008 г., Приключения / комедия, DVDRip R5]

Reply to topic
 
Author
Message

centrashi ®

Gender:

Longevity: 9 years

Posts: 51

Location: Украина

Торрент-статистика

Post 31-Aug-2012 20:23

[Quote]

Короли игры Год выпуска: 2008
Жанр: Приключения / комедия
Продолжительность: 10:34:50-Режиссер: Максим Субботин, Валерий Рожнов, Вано Бурдули, Владимир Котт, Алексей Рудаков
В ролях: Дмитрий Шевченко, Алексей Завьялов, Оскар Кучера, Александр Самойленко, Игорь Золотовицкий, Валерий Гаркалин, Олег Комаров-Описание:
Максим, Степан, Роман и Кеша — сплоченная команда вершителей оригинальных дел. Они организовали бюро, в которое может обратиться любой человек, которому жизненна необходима нестандартная помощь.
Дружная четверка, определившись с задачей, пытается реализовать "спасательные (обманные) операции". Как тайные агенты они выслеживают обидчиков своих клиентов, разрабатывают и осуществляют хитроумные комбинации, восстанавливая справедливость или помогая в решении реальных проблем.
С течением времени, по мере наработки опыта, их авантюры становятся все хитроумнее и изобретательнее, пути решения все невероятнее, актерское исполнение раскованнее, а сеть клиентов все обширнее.-Качество: DVDRip
Формат: AVI
Видео кодек: DivX
Аудио кодек: MP3
Видео: DivX 5 640x480 25.00fps 883Kbps
Аудио: MPEG Audio Layer 3 48000Hz stereo 128Kbps-

Mediainfo

Код:
Полное имя                       : D:\скчаное с торрента\Короли игры\Короли игры e01.avi
Формат                           : AVI
Формат/Информация                : Audio Video Interleave
Размер файла                     : 400 Мбайт
Продолжительность                : 58 м.
Общий поток                      : 952 Кбит/сек
Название фильма                  : Короли игры e01
Видео
Идентификатор                    : 0
Формат                           : MPEG-4 Visual
Параметр BVOP формата            : 1
Параметр QPel формата            : Нет
Параметр GMC формата             : Без точки перехода
Параметр матрицы формата         : Default (H.263)
Режим смешивания                 : Сжатый битовый поток
Идентификатор кодека             : DX50
Идентификатор кодека/Подсказка   : DivX 5
Продолжительность                : 58 м.
Битрейт                          : 816 Кбит/сек
Ширина                           : 640 пикс.
Высота                           : 480 пикс.
Соотношение сторон               : 4:3
Частота кадров                   : 25,000 кадр/сек
Цветовое пространство            : YUV
Подвыборка цветности             : 4:2:0
Битовая глубина                  : 8 бит
Тип развёртки                    : Прогрессивная
Метод сжатия                     : С потерями
Бит/(Пиксели*Кадры)              : 0.106
Размер потока                    : 343 Мбайт (86%)
Библиотека кодирования           : DivX 6.7.0 (UTC 2007-09-20)
Аудио
Идентификатор                    : 1
Формат                           : MPEG Audio
Версия формата                   : Version 1
Профиль формата                  : Layer 3
Режим                            : Joint stereo
Расширение режима                : MS Stereo
Идентификатор кодека             : 55
Идентификатор кодека/Подсказка   : MP3
Продолжительность                : 58 м.
Вид битрейта                     : Постоянный
Битрейт                          : 128 Кбит/сек
Каналы                           : 2 канала
Частота                          : 48,0 КГц
Метод сжатия                     : С потерями
Размер потока                    : 53,8 Мбайт (13%)
Выравнивание                     : Соединение по промежуткам
Продолжительность промежутка     : 80  мс. (2,00 видеокадра)
Время предзагрузки промежутка    : 504 ms
Библиотека кодирования           : LAME3.97
Настройки программы              : -m j -V 4 -q 2 -lowpass 17 -b 128
Язык                             : 5 / @5 / Russian

Скриншоты

         

_________________
Бороться и искать, найти и не сдваться.


Last edited by centrashi on 2012-09-01 13:11; edited 1 time in total
Other forum [Profile] [PM]
Display posts from previous:    
Reply to topic

The time now is: Today 00:13

All times are GMT + 3 Hours



You cannot post new topics in this forum
You cannot reply to topics in this forum
You cannot edit your posts in this forum
You cannot delete your posts in this forum
You cannot vote in polls in this forum
You cannot attach files in this forum
You cannot download files in this forum