Today is a free download without charge Download

Одноклассницы (Дмитрий Суворов) [2016, Россия, комедия, WEB-DL 1080p] + Original Rus

Reply to topic
 
Author
Message

Omen ®

Longevity: 8 years 10 months

Posts: 181086

Торрент-статистика

Post 07-Jul-2016 03:00

[Quote]

Одноклассницы
Страна: Россия
Студия: Кинофирма
Жанр: комедия
Год выпуска: 2016
Продолжительность: 01:17:21
Перевод: Не требуется
Cубтитры: нет
Оригинальная аудиодорожка: русский
Режиссер: Дмитрий Суворов
В ролях: Светлана Ходченкова, Валентина Мазунина, Екатерина Вилкова, Ольга Кузьмина, Арарат Кещян, Роман Юнусов, Илья Любимов, Антон Макарский, Ян Цапник, Дмитрий Хрусталёв, Пётр Романов, Яна Кошкина, Александр Соколовский, Денис Косяков, Влад Канопка, Данила Якушев, Евгений Кулик (II), Полина Филоненко
Описание: Три подруги Вика, Света и Даша бросают свои дела и едут в Сочи на девичник к бывшей однокласснице Кате, чтобы как следует там оторваться. Веселье в разгаре и шампанское льется рекой, но тут случается то, чего никто не мог ожидать — в самый разгар праздника Катя застает своего жениха с пышногрудой блондинкой. Невеста в истерике. Она запирается в номере и говорит, что готова выйти за первого встречного, лишь бы не за него. Свадьба назначена на завтра и у решительных подруг есть всего лишь одна ночь, чтобы найти Кате нового мужа. Удастся ли им это?

Sample
Тип релиза: WEB-DL 1080p
Контейнер: MKV
Видео: MPEG4 AVC Video, H264, 16:9, 1920x804, 24 fps, 4333 kbps
Аудио: Russian (AC3, 6 ch, 384 kbps, 16 bits, 48.0 KHz) - оригинал

MediaInfo

General
Unique ID : 223844693595353348198162037267990803286 (0xA866EB79E5952C60ACD79438F8CF7356)
Complete name : E:\Одноклассницы 2016 WEB-DL 1080p.mkv
Format : Matroska
Format version : Version 4 / Version 2
File size : 2.60 GiB
Duration : 1h 17mn
Overall bit rate : 4 813 Kbps
Encoded date : UTC 2016-07-06 18:07:58
Writing application : mkvmerge v8.3.0 ('Over the Horizon') 64bit
Writing library : libebml v1.3.1 + libmatroska v1.4.2
DURATION : 01:17:21.888000000
NUMBER_OF_FRAMES : 145059
NUMBER_OF_BYTES : 222810624
_STATISTICS_WRITING_APP : mkvmerge v8.3.0 ('Over the Horizon') 64bit
_STATISTICS_WRITING_DATE_UTC : 2016-07-06 18:07:58
_STATISTICS_TAGS : BPS DURATION NUMBER_OF_FRAMES NUMBER_OF_BYTES
Video
ID : 1
Format : AVC
Format/Info : Advanced Video Codec
Format profile : [email protected]
Format settings, CABAC : Yes
Format settings, ReFrames : 5 frames
Codec ID : V_MPEG4/ISO/AVC
Duration : 1h 17mn
Bit rate : 4 333 Kbps
Width : 1 920 pixels
Height : 804 pixels
Display aspect ratio : 2.40:1
Frame rate mode : Constant
Frame rate : 24.000 fps
Color space : YUV
Chroma subsampling : 4:2:0
Bit depth : 8 bits
Scan type : Progressive
Bits/(Pixel*Frame) : 0.117
Stream size : 2.34 GiB (90%)
Language : English
Default : Yes
Forced : No
Color primaries : BT.709
Transfer characteristics : BT.709
Matrix coefficients : BT.709
Audio
ID : 2
Format : AC-3
Format/Info : Audio Coding 3
Mode extension : CM (complete main)
Format settings, Endianness : Big
Codec ID : A_AC3
Duration : 1h 17mn
Bit rate mode : Constant
Bit rate : 384 Kbps
Channel count : 6 channels
Channel positions : Front: L C R, Side: L R, LFE
Sampling rate : 48.0 KHz
Bit depth : 16 bits
Compression mode : Lossy
Stream size : 212 MiB (8%)
Language : Russian
Default : Yes
Forced : No
Menu
00:00:00.000 : en:Глава 1
00:05:46.500 : en:Глава 2
00:11:18.333 : en:Глава 3
00:16:37.499 : en:Глава 4
00:22:01.165 : en:Глава 5
00:27:26.998 : en:Глава 6
00:33:40.289 : en:Глава 7
00:39:26.539 : en:Глава 8
00:44:47.330 : en:Глава 9
00:49:54.913 : en:Глава 10
00:56:11.079 : en:Глава 11
01:01:14.120 : en:Глава 12
01:06:20.078 : en:Глава 13

Скриншоты

Other forum [Profile] [PM]
Similar theme
Forum Topic Author Torrent Replies Last Post
./templates/default/images/folder_dl.gif Заготовки, виньетки, костюмы, шаблоны и рамки Шаблоны - Фотокнига \"Встреча одноклассников\" [PSD] UndegraundMen
1 | 0

0 | 2131

7

2013-07-26 23:25
UndegraundMen Latest
Display posts from previous:    
Reply to topic

The time now is: Today 18:45

All times are GMT + 3 Hours



You cannot post new topics in this forum
You cannot reply to topics in this forum
You cannot edit your posts in this forum
You cannot delete your posts in this forum
You cannot vote in polls in this forum
You cannot attach files in this forum
You cannot download files in this forum