Today is a free download without charge Download

Седьмая группа / Группа 7 / Grupo 7 / Unit 7 (Альберто Родригес / Alberto Rodríguez) [2012, Испания, боевик, триллер, драма, BDRip 1080p]

Reply to topic
 
Author
Message

Delia ®

Gender:

Longevity: 11 years

Posts: 1821

Торрент-статистика

Post 31-Aug-2012 08:53

[Quote]

Седьмая группа / Группа 7 / Grupo 7 / Unit 7 --
Год выпуска: 2012
Страна: Испания
Жанр: боевик, триллер, драма, ...
Продолжительность: 01:35:15
Перевод: Профессиональный многоголосый
Субтитры: Russian (Антон Кедров (antoniolagrande), english (srt)
Режиссер: Альберто Родригес
Сценарий: Рафаэль Кобос, Альберто Родригес
Продюсер: Хосе Антонио Фелес-
Антонио де ла Торре (Rafael), Марио Касас , Хоакин Нуньес (Mateo), Хосе Мануэль Пога (Miguel), Инма Куэста (Elena), Эстефания Де Лос Сантос (La Caoba), Хулиан Вильягран , Альфонсо Санчез (Amador), Карлос Олайя , Лусия Герерро , Диана Лазаро (Marisa Morales), Хесус Карроса
Описание: 1987 год, Севилья. Группа 7 специальный отряд полиции с особо важным заданием: очистить город от проституции и наркотрафика, положив конец разъедающей все силе, которая захватила улицы. Во главе отряда стоят Анхель, молодой офицер, стремящийся стать детективом, и Рафаэль, жестокий и надменный, но очень эффективный опытный коп. Основной метод действия группы 7 — в борьбе с преступностью самим обходить закон с помощью насилия, угроз, полуправды и лжи. Для них все средства хороши. По мере того как они продвигаются в своей миссии вперед, два офицера становятся на разные пути. Анхель оказывается увлеченным своими амбициями, а Рафаэль неожиданно для самого себя привязывается и влюбляется в молодую красавицу Лючию, которую перед этим подбирает на улице.-Бюджет: €3 500 000
Зрители: 287.1 тыс
Премьера (мир): 4 апреля 2012, ...--Релиз группы:
--Качество: BDRip
Формат: MKV
Видео кодек: H.264 (AVC)
Аудио кодеk: AC3
Видео: 1920x816 (2.35:1), 24.000 fps, AVC, 5 931 Kbps
Аудио: AC3, 640 Kbps, 48.0 KHz, 6 ch

x264

x264 [info]: frame I:1219 Avg QP:12.53 size:137167
x264 [info]: frame P:34048 Avg QP:14.67 size: 55119
x264 [info]: frame B:101899 Avg QP:17.69 size: 21517

МедиаИнфо

Код:
General
Complete name                    : Grupo 7(2012)BDRip-F.HD.mkv
Format                           : Matroska
File size                        : 4.37 GiB
Duration                         : 1h 35mn
Overall bit rate                 : 6 572 Kbps
Encoded date                     : UTC 2012-08-31 05:01:45
Writing application              : mkvmerge v5.4.0 ('Piper') built on Mar 10 2012 13:34:39
Writing library                  : libebml v1.2.3 + libmatroska v1.3.0
Video
ID                               : 1
Format                           : AVC
Format/Info                      : Advanced Video Codec
Format profile                   : [email protected]
Format settings, CABAC           : Yes
Format settings, ReFrames        : 5 frames
Format settings, GOP             : M=4, N=16
Muxing mode                      : Container [email protected]
Codec ID                         : V_MPEG4/ISO/AVC
Duration                         : 1h 35mn
Bit rate                         : 5 931 Kbps
Width                            : 1 920 pixels
Height                           : 816 pixels
Display aspect ratio             : 2.35:1
Frame rate                       : 24.000 fps
Color space                      : YUV
Chroma subsampling               : 4:2:0
Bit depth                        : 8 bits
Scan type                        : Progressive
Bits/(Pixel*Frame)               : 0.158
Stream size                      : 3.86 GiB (88%)
Writing library                  : x264 core 125 r2208 d9d2288
Encoding settings                : cabac=1 / ref=5 / deblock=1:-3:-3 / analyse=0x3:0x113 / me=umh / subme=11 / psy=1 / psy_rd=1.00:0.00 / mixed_ref=1 / me_range=32 / chroma_me=1 / trellis=2 / 8x8dct=1 / cqm=0 / deadzone=21,11 / fast_pskip=0 / chroma_qp_offset=2 / threads=6 / lookahead_threads=1 / sliced_threads=0 / nr=0 / decimate=1 / interlaced=0 / bluray_compat=0 / constrained_intra=0 / bframes=8 / b_pyramid=2 / b_adapt=2 / b_bias=0 / direct=3 / weightb=1 / open_gop=0 / weightp=2 / keyint=240 / keyint_min=24 / scenecut=40 / intra_refresh=0 / rc=2pass / mbtree=0 / bitrate=5931 / ratetol=1.0 / qcomp=0.60 / qpmin=0 / qpmax=69 / qpstep=4 / cplxblur=20.0 / qblur=0.5 / ip_ratio=1.40 / pb_ratio=1.30 / aq=1:0.85
Color primaries                  : BT.709-5, BT.1361, IEC 61966-2-4, SMPTE RP177
Transfer characteristics         : BT.709-5, BT.1361
Matrix coefficients              : BT.709-5, BT.1361, IEC 61966-2-4 709, SMPTE RP177
Audio
ID                               : 2
Format                           : AC-3
Format/Info                      : Audio Coding 3
Mode extension                   : CM (complete main)
Codec ID                         : A_AC3
Duration                         : 1h 35mn
Bit rate mode                    : Constant
Bit rate                         : 640 Kbps
Channel(s)                       : 6 channels
Channel positions                : Front: L C R, Side: L R, LFE
Sampling rate                    : 48.0 KHz
Bit depth                        : 16 bits
Stream size                      : 436 MiB (10%)
Language                         : Russian
Text #1
ID                               : 3
Format                           : UTF-8
Codec ID                         : S_TEXT/UTF8
Codec ID/Info                    : UTF-8 Plain Text
Title                            : (Антон Кедров (antoniolagrande)
Language                         : Russian
Text #2
ID                               : 4
Format                           : UTF-8
Codec ID                         : S_TEXT/UTF8
Codec ID/Info                    : UTF-8 Plain Text
Menu
00:00:00.000                     : en:Chapter 01
00:11:50.458                     : en:Chapter 02
00:23:53.041                     : en:Chapter 03
00:34:38.750                     : en:Chapter 04
00:48:38.666                     : en:Chapter 05
01:00:24.583                     : en:Chapter 06
01:12:23.375                     : en:Chapter 07
01:24:12.625                     : en:Chapter 08


Скриншоты

     
     

_________________
Человек – это канат, натянутый между животным и сверхчеловеком, – канат над пропастью.
В человеке ценно то, что он мост, а не цель. Фридрих Ницше


Last edited by Delia on 2013-04-06 21:01; edited 1 time in total
Other forum [Profile] [PM]

Delia ®

Gender:

Longevity: 11 years

Posts: 1821

Торрент-статистика

Post 06-Apr-2013 18:55 (after 7 months 6 days)

[Quote]

Замена дорожки на лицензионную.

_________________
Человек – это канат, натянутый между животным и сверхчеловеком, – канат над пропастью.
В человеке ценно то, что он мост, а не цель. Фридрих Ницше
Other forum [Profile] [PM]
Display posts from previous:    
Reply to topic

The time now is: Today 03:56

All times are GMT + 3 Hours



You cannot post new topics in this forum
You cannot reply to topics in this forum
You cannot edit your posts in this forum
You cannot delete your posts in this forum
You cannot vote in polls in this forum
You cannot attach files in this forum
You cannot download files in this forum