Today is a free download without charge Download

Трембита (Олег Николаевский) [1968, СССР, мюзикл, мелодрама, комедия, HDTV 1080i]

Reply to topic
 
Author
Message

Omen ®

Longevity: 8 years 10 months

Posts: 181086

Торрент-статистика

Post 03-Jul-2016 21:00

[Quote]

Трембита
Страна: СССР
Жанр: мюзикл, мелодрама, комедия
Год выпуска: 1968
Продолжительность: 01:27:14
Перевод: Не требуется
Cубтитры: нет
Оригинальная аудиодорожка: русский
Режиссер: Олег Николаевский
В ролях: Евгений Весник, Ольга Аросева, Алексей Чернов, Николай Трофимов, Людмила Купина, Юлия Вуккерт, Иван Переверзев, Савелий Крамаров, Сергей Блинников, Игорь Класс
Описание:Только что отгремела Вторая мировая война. Бывший дворецкий местного графа, что бежал вместе с немцами, тайно вернулся в село, чтобы найти хозяйский клад, присвоить его и зажить припеваючи. Однако из этой затеи ничего не вышло…-
MPAA: G - Нет возрастных ограничений-Тип релиза: HDTV 1080i - Sample
Контейнер: MKV
Видео: MPEG-4 AVC, 1920x1080 (16:9), 8616 Кбит/с, 25 кадров/сек, 0.166 бит/пиксель
Аудио: MP2, 48 КГц, 2 канала, 224 Кбит/с

MediaInfo

Общее
Уникальный идентификатор : 180097395160248573576202547219004997328 (0x877D7F22C8F318CBBC55BA7B04293ED0)
Полное имя : C:\...\Трембита.1968.HDTV1080i.Rutracker-PB.mkv
Формат : Matroska
Версия формата : Version 2
Размер файла : 5,50 Гбайт
Продолжительность : 1 ч. 27 м.
Общий поток : 9020 Кбит/сек
Название фильма : Трембита (1966) HDTV 1080i - PB for /*spam*/
Дата кодирования : UTC 2016-07-02 16:23:12
Программа кодирования : mkvmerge v7.6.0 ('Garden of Dreams') 32bit built on Feb 11 2015 00:18:47
Библиотека кодирования : libebml v1.3.1 + libmatroska v1.4.2
Attachment : Yes
Видео
Идентификатор : 1
Формат : AVC
Формат/Информация : Advanced Video Codec
Профиль формата : [email protected]
Параметр CABAC формата : Да
Параметр ReFrames формата : 3 кадра
Идентификатор кодека : V_MPEG4/ISO/AVC
Продолжительность : 1 ч. 27 м.
Битрейт : 8616 Кбит/сек
Ширина : 1920 пикселей
Высота : 1080 пикселей
Соотношение сторон : 16:9
Режим частоты кадров : Постоянный
Частота кадров : 25,000 кадров/сек
Стандарт вещания : Component
Цветовое пространство : YUV
Субдискретизация насыщенности : 4:2:0
Битовая глубина : 8 бит
Тип развёртки : Чересстрочная
Порядок развёртки : Верхнее поле первое
Бит/(Пиксели*Кадры) : 0.166
Размер потока : 5,25 Гбайт (96%)
Заголовок : Трембита (1966) HDTV 1080i
Язык : Russian
Default : Да
Forced : Нет
Основные цвета : BT.709
Характеристики трансфера : BT.709
Коэффициенты матрицы : BT.709
Аудио
Идентификатор : 2
Формат : MPEG Audio
Версия формата : Version 1
Профиль формата : Layer 2
Идентификатор кодека : A_MPEG/L2
Идентификатор кодека/Подсказка : MP2
Продолжительность : 1 ч. 27 м.
Вид битрейта : Постоянный
Битрейт : 224 Кбит/сек
Каналы : 2 канала
Частота : 48,0 КГц
Метод сжатия : С потерями
Задержка видео : -80 мс.
Размер потока : 140 Мбайт (2%)
Заголовок : MP2 2.0 - 224kbps
Язык : Russian
Default : Да
Forced : Нет

Скриншоты


Other forum [Profile] [PM]
Display posts from previous:    
Reply to topic

The time now is: Today 21:17

All times are GMT + 3 Hours



You cannot post new topics in this forum
You cannot reply to topics in this forum
You cannot edit your posts in this forum
You cannot delete your posts in this forum
You cannot vote in polls in this forum
You cannot attach files in this forum
You cannot download files in this forum