Today is a free download without charge Download

Три девушки (Мурад Ибрагимбеков) [2007, Азербайджан, Россия, комедия, HDTV 1080i]

Reply to topic
 
Author
Message

Omen ®

Longevity: 8 years 10 months

Posts: 181086

Торрент-статистика

Post 02-Jul-2016 00:33

[Quote]

Три девушки- -Страна: Азербайджан, Россия
Жанр: комедия
Год выпуска: 2007
Производство: «Азербайджанфильм, Hoferichter & Jacobs, Ибрус»
Продолжительность: 01:23:19
Оригинальная аудиодорожка: русский
Cубтитры: не отключаемые (на иностранную речь)-Режиссер: Мурад Ибрагимбеков-В ролях:
Йоахим Пауль Ассбёк, Александра Финдер, Сергей Фролов, Мурад Ибрагимбеков, Арзу Кадирбекова,
Равшана Куркова, Тарана Одьявердиева, Михаил Полицеймако, Заур Теймурбеков-Описание:
Вторая мировая война: из Краковского музея украдена картина. Вдогонку за подозреваемым в Северную Африку направлен сыщик. Занзарен, самопровозглашенный художник, живет приморской деревушке и постоянно пишет картины, изображающие трех обнаженных девушек на морском берегу. Расследование идет своим чередом, и действие, происходящие в Северной Африке в конце Второй мировой войны, переплетаются с событиями, имеющими место в современном Баку.
Три одноклассника растут в совершенно разных мирах. Гена становится милиционером, Джамбо — вором, а Маф — лидером местной преступной группировки. Три подруги — художница Майя, студентка Плюша и Сабина, работающая компьютерщиком в спортклубе, принадлежащем Мафу, — занимаются спортивной стрельбой уже более 10 лет. Каждая из них расцветает по-своему и ищет любовь.
Маф получает по электронной почте письмо с указанием «раздобыть» картину под названием «Три девушки», которую скоро должны представить на выставке в Национальном музее. Маф обманом выигрывает в нарды у своего старого школьного друга Джамбо. Чтобы загладить долг, Джамбо должен украсть полотно или же умереть — перед таким выбором ставит его Маф.
Случайная встреча Майи и Джамбо у картины становится судьбоносной: девушка влюбляется и, сама того не желая, становится соучастником, решившись подделать полотно. В поисках выхода девушки решают, что Плюша должна поговорить с молодым полицейским Геной, ищущим ее расположения. Иллюзия любви, бойфренды, которые не умеют стрелять и подделки подделок подделок — чтобы выбраться из этого болота, девушки должны найти в себе мужество и вспомнить о своих занятиях стрельбой, для того чтобы обрести свободу и встретиться с Занзареном и узнать его секрет.-Возраст: 16+-Качество: HDTV (1080i)
Формат: TS
Видео кодек: AVC
Аудио кодек: MPEG Audio

Видео: AVC, 1920 х 1080 (16:9), 25,000 кадр/сек, 6 235 Кбит/сек, 0.120 bit/pixel
Аудио: MPEG Audio, 48000 Hz, 192 Kbps, 2 канала
-

MediaInfo

General
ID : 6 (0x6)
Complete name : D:\Раздачи\Три девушки HDTV (1080i)\Три девушки HDTV (1080i).ts
Format : MPEG-TS
File size : 3.94 GiB
Duration : 1h 23mn
Overall bit rate mode : Variable
Overall bit rate : 6 763 Kbps
Video
ID : 302 (0x12E)
Menu ID : 20102 (0x4E86)
Format : AVC
Format/Info : Advanced Video Codec
Format profile : [email protected]
Format settings, CABAC : Yes
Format settings, ReFrames : 4 frames
Codec ID : 27
Duration : 1h 23mn
Bit rate : 6 235 Kbps
Width : 1 920 pixels
Height : 1 080 pixels
Display aspect ratio : 16:9
Frame rate : 25.000 fps
Standard : Component
Color space : YUV
Chroma subsampling : 4:2:0
Bit depth : 8 bits
Scan type : Interlaced
Scan type, store method : Separated fields
Scan order : Top Field First
Bits/(Pixel*Frame) : 0.120
Stream size : 3.63 GiB (92%)
Color range : Limited
Color primaries : BT.709
Transfer characteristics : BT.709
Matrix coefficients : BT.709
Audio
ID : 402 (0x192)
Menu ID : 20102 (0x4E86)
Format : MPEG Audio
Format version : Version 1
Format profile : Layer 2
Codec ID : 4
Duration : 1h 23mn
Bit rate mode : Constant
Bit rate : 192 Kbps
Channel(s) : 2 channels
Sampling rate : 48.0 KHz
Compression mode : Lossy
Delay relative to video : 36ms
Stream size : 114 MiB (3%)
Language : Russian
Language, more info : Clean effects

Скриншоты


-Раздаю до первых 5-ти скачавших, на раздачи не возвращаюсь...-
Other forum [Profile] [PM]
Display posts from previous:    
Reply to topic

The time now is: Today 18:34

All times are GMT + 3 Hours



You cannot post new topics in this forum
You cannot reply to topics in this forum
You cannot edit your posts in this forum
You cannot delete your posts in this forum
You cannot vote in polls in this forum
You cannot attach files in this forum
You cannot download files in this forum