Today is a free download without charge Download

Северная Cтена / The North Face / Nordwand (Филипп Штольц / Philipp Stölzl) [2008, Германия, Швейцария, Австрия, драма, мелодрама, приключения, история, спорт, BDRip 720p]

Reply to topic
 
Author
Message

Delia ®

Gender:

Longevity: 10 years

Posts: 1821

Торрент-статистика

Post 30-Aug-2012 15:38

[Quote]

Северная стена / Nordwand--
Год выпуска: 2008
Страна: Германия , Швейцария , Австрия
Жанр: драма, мелодрама, приключения, история, спорт, ...
Продолжительность: 02:06:07
Перевод: Любительский (одноголосый закадровый|AlexSer|)
Субтитры: Russian , english (srt)
Режиссер: Филипп Штёльцль
Сценарий: Кристоф Силбер, Филипп Штёльцль, Руперт Хеннинг, ...
Продюсер: Бенжамин Херрманн, Дэнни Крауш, Rudolf Santschi, ...
В ролях:Бенно Фюрманн (Toni Kurz), Йоханна Вокалек (Luise Fellner), Флориан Лукас (Andi Hinterstoisser), Симон Шварц (Willy Angerer), Георг Фридрих (Edi Rainer), Ульрих Тукур (Henry Arau), Эрвин Штайнхауэр (Emil Landauer), Бранко Самаровски (Albert von Allmen), Петра Морзе (Elisabeth Landauer), Ганспетер Мюллер (Hans Schlunegger, (в титрах: Hanspeter Müller-Drossart)), Peter Zumstein (Adolf Rubi), Мартин Шик (Christian Rubi)
Описание: 1936 год. Северная стена Айгера — последняя «нерешенная проблема» Альп, за решение которой сам Гитлер лично обещает вручить золотые медали Берлинской олимпиады&3; Есть три знаменитые классические стены северной ориентации — Гранд Жорас, Матерхорн, Айгер. Первым — в 1931 — пал Матерхорн. В 1935 была пройдена стена Гранд Жораса. Но именно Северную стену Айгера прозвали «Стеной смерти». Именно на неё власти кантона в 1938-м запретили совершать восхождения, а спасатели вопреки всем канонам и уставам заявили в запале, что больше никого не будут вытаскивать с этой стены. Что ж, всему есть предел. И в конце 30-х казалось, что стену не взять никогда. Основанием для подобных размышлений служила хроника предыдущего десятилетия. С 1928 по 1936 на стену — как под поезд — бросаются группы смельчаков. Безуспешно. Июль 1936-го. Два баварца — Андреас Хинтерштойсер и Тони Курц, и два австрийца — Вилли Ангерер и Эдди Райнер объединяют усилия в штурме стены...
Этот художественный фильм - редчайшее сочетание захватывающего зрелища, настоящей драмы, и при этом исторической и технической достоверности.
--Релиз группы:
--Качество: BDRip
Формат: MKV
Видео кодек: H.264 (AVC)
Аудио кодеk: AC3
Видео: 1280x720 (16:9), 24.000 fps, AVC, 8 577 Kbps
Аудио: AC3, 448 Kbps, 48.0 KHz, 6 ch

МедиаИнфо

Код:
General
Complete name                    : Nordwand(2008)BDRip720p-FHD.mkv
Format                           : Matroska
File size                        : 7.95 GiB
Duration                         : 2h 6mn
Overall bit rate                 : 9 021 Kbps
Encoded date                     : UTC 2012-08-30 06:41:24
Writing application              : mkvmerge v5.4.0 ('Piper') built on Mar 10 2012 13:34:39
Writing library                  : libebml v1.2.3 + libmatroska v1.3.0
Video
ID                               : 1
Format                           : AVC
Format/Info                      : Advanced Video Codec
Format profile                   : [email protected]
Format settings, CABAC           : Yes
Format settings, ReFrames        : 9 frames
Muxing mode                      : Container [email protected]
Codec ID                         : V_MPEG4/ISO/AVC
Duration                         : 2h 6mn
Bit rate                         : 8 577 Kbps
Width                            : 1 280 pixels
Height                           : 720 pixels
Display aspect ratio             : 16:9
Frame rate                       : 24.000 fps
Color space                      : YUV
Chroma subsampling               : 4:2:0
Bit depth                        : 8 bits
Scan type                        : Progressive
Bits/(Pixel*Frame)               : 0.388
Stream size                      : 7.39 GiB (93%)
Writing library                  : x264 core 125 r2208 d9d2288
Encoding settings                : cabac=1 / ref=9 / deblock=1:-3:-3 / analyse=0x3:0x113 / me=umh / subme=10 / psy=1 / psy_rd=1.00:0.15 / mixed_ref=1 / me_range=32 / chroma_me=1 / trellis=2 / 8x8dct=1 / cqm=0 / deadzone=21,11 / fast_pskip=0 / chroma_qp_offset=1 / threads=6 / lookahead_threads=1 / sliced_threads=0 / nr=0 / decimate=1 / interlaced=0 / bluray_compat=0 / constrained_intra=0 / bframes=10 / b_pyramid=2 / b_adapt=2 / b_bias=0 / direct=3 / weightb=1 / open_gop=0 / weightp=2 / keyint=240 / keyint_min=24 / scenecut=40 / intra_refresh=0 / rc=2pass / mbtree=0 / bitrate=8577 / ratetol=1.0 / qcomp=0.75 / qpmin=0 / qpmax=40 / qpstep=4 / cplxblur=20.0 / qblur=0.5 / ip_ratio=1.20 / pb_ratio=1.20 / aq=1:0.65
Color primaries                  : BT.709-5, BT.1361, IEC 61966-2-4, SMPTE RP177
Transfer characteristics         : BT.709-5, BT.1361
Matrix coefficients              : BT.709-5, BT.1361, IEC 61966-2-4 709, SMPTE RP177
Audio
ID                               : 2
Format                           : AC-3
Format/Info                      : Audio Coding 3
Mode extension                   : CM (complete main)
Codec ID                         : A_AC3
Duration                         : 2h 6mn
Bit rate mode                    : Constant
Bit rate                         : 448 Kbps
Channel(s)                       : 6 channels
Channel positions                : Front: L C R, Side: L R, LFE
Sampling rate                    : 48.0 KHz
Bit depth                        : 16 bits
Stream size                      : 404 MiB (5%)
Title                            : VO. AlexSer
Language                         : Russian
Text #1
ID                               : 3
Format                           : UTF-8
Codec ID                         : S_TEXT/UTF8
Codec ID/Info                    : UTF-8 Plain Text
Title                            : AlexSer
Language                         : Russian
Text #2
ID                               : 4
Format                           : UTF-8
Codec ID                         : S_TEXT/UTF8
Codec ID/Info                    : UTF-8 Plain Text
Menu
00:00:00.000                     : en:Chapter 01
00:08:34.083                     : en:Chapter 02
00:18:56.458                     : en:Chapter 03
00:27:51.958                     : en:Chapter 04
00:38:42.166                     : en:Chapter 05
00:47:57.416                     : en:Chapter 06
00:57:41.416                     : en:Chapter 07
01:13:15.875                     : en:Chapter 08
01:24:42.500                     : en:Chapter 09
01:43:52.958                     : en:Chapter 10
01:56:26.583                     : en:Chapter 11
01:59:52.333                     : en:Chapter 12

Знаете ли Вы, что...

Впервые Северная стена Эйгера была преодолена 21—24 июля 1938 года немецко-австрийской группой альпинистов, состоявшей из Генриха Харрера, Андерля Хекмайра, Фритца Каспарека и Людвига Вёрга.


Скриншоты

       

_________________
Человек – это канат, натянутый между животным и сверхчеловеком, – канат над пропастью.
В человеке ценно то, что он мост, а не цель. Фридрих Ницше


Last edited by Delia on 2012-09-28 13:45; edited 2 times in total
Other forum [Profile] [PM]

радист

Gender:

Longevity: 10 years

Posts: 164

Торрент-статистика

Post 30-Aug-2012 17:03 (after 1 hour 24 minutes)

[Quote]

Отличный фильм!Всем советую посмотреть!!

_________________
Дураков на свете не много, но расставлены они так грамотно, что встречаются на каждом шагу.
Other forum [Profile] [PM]
Similar theme
Forum Topic Author Torrent Replies Last Post
./templates/default/images/folder_dl.gif Техническая и научно-популярная литература Александр Север, Александр Колпакиди | Спецназ ГРУ. Самая полная энциклопедия (2012) [FB2] Omen
1 | 0

0 | 859

5

2015-04-02 21:45
Omen Latest
Display posts from previous:    
Reply to topic

The time now is: Today 01:35

All times are GMT + 3 Hours



You cannot post new topics in this forum
You cannot reply to topics in this forum
You cannot edit your posts in this forum
You cannot delete your posts in this forum
You cannot vote in polls in this forum
You cannot attach files in this forum
You cannot download files in this forum