Today is a free download without charge Download

Кошки под дождём (Алексей Дёмин) [2001, Россия, музыкальный мультфильм, WEBRip]

Reply to topic
 
Author
Message

Omen ®

Longevity: 7 years 11 months

Posts: 181087

Торрент-статистика

Post 01-Jul-2016 18:00

[Quote]

Кошки под дождём
Страна: Россия
Жанр: музыкальный мультфильм
Продолжительность: 00:05:48
Год выпуска: 2001
Режиссёр: Алексей Дёмин
Поёт: Софья Милькина
Описание: По рисункам и шуточной песенке Софьи Милькиной про то, как старушка и её кошки ходили на рыбалку.
Доп. информация: Приз жюри за самый человечный фильм - Фестиваль анимации в Тарусе (2001)
Качество: WEBRip
Формат: AVI
Видео: 1254 kbps, 576х464 (5:4), 25.000 fps, MPEG-4 Visual (XviD)
Аудио: 128 kbps, 44.1 kHz, 2 channels, MPEG Audio (MP3)
Субтитры: отсутствуют

Подробные технические данные

GeneralComplete name : Кошки под дождём (2001).aviFormat : AVIFormat/Info : Audio Video InterleaveFile size : 57.9 MiBDuration : 5mn 48sOverall bit rate : 1 392 KbpsWriting library : VirtualDub build 35491/release
VideoID : 0Format : MPEG-4 VisualFormat profile : Advanced [email protected] settings, BVOP : 2Format settings, QPel : NoFormat settings, GMC : No warppointsFormat settings, Matrix : Default (H.263)Codec ID : XVIDCodec ID/Hint : XviDDuration : 5mn 48sBit rate : 1 254 KbpsWidth : 576 pixelsHeight : 464 pixelsDisplay aspect ratio : 5:4Frame rate : 25.000 fpsColor space : YUVChroma subsampling : 4:2:0Bit depth : 8 bitsScan type : ProgressiveCompression mode : LossyBits/(Pixel*Frame) : 0.188Stream size : 52.1 MiB (90%)Writing library : XviD 64
AudioID : 1Format : MPEG AudioFormat version : Version 1Format profile : Layer 3Mode : Joint stereoMode extension : MS StereoCodec ID : 55Codec ID/Hint : MP3Duration : 5mn 48sBit rate mode : ConstantBit rate : 128 KbpsChannel(s) : 2 channelsSampling rate : 44.1 KHzCompression mode : LossyStream size : 5.31 MiB (9%)Alignment : Split accross interleavesInterleave, duration : 40 ms (1.00 video frame)Interleave, preload duration : 501 ms

Скриншоты

Other forum [Profile] [PM]
Display posts from previous:    
Reply to topic

The time now is: Today 12:43

All times are GMT + 3 Hours



You cannot post new topics in this forum
You cannot reply to topics in this forum
You cannot edit your posts in this forum
You cannot delete your posts in this forum
You cannot vote in polls in this forum
You cannot attach files in this forum
You cannot download files in this forum