Today is a free download without charge Download

Вдвоем на льдине (Валерий Игнатьев) [2015, Россия, мелодрама, WEB-DL 1080p]

Reply to topic
 
Author
Message

Omen ®

Longevity: 8 years 10 months

Posts: 181086

Торрент-статистика

Post 30-Jun-2016 12:00

[Quote]

Вдвоем на льдине- -Страна: Россия
Жанр: мелодрама
Год выпуска: 2015
Производство: «Первое Творческое Объединение»
Продолжительность: 01:23:48
Оригинальная аудиодорожка: русский
Cубтитры: нет-Режиссер: Валерий Игнатьев-В ролях:
Владимир Дыховичный, Елизавета Саксина, Валерий Баринов, Марианна Шульц, Евгений Редько,
Александр Бобров, Полина Козловская, Евгения Каверау, Иван Шмаков, Диана Енакаева-Описание:
Юный пианист Роман Осин попадает в онкологическую клинику с диагнозом Саркома Юинга, где встречает девочку Юлю, талантливую художницу. Между ними возникает симпатия, все свободное время они стараются проводить вместе. Забыв о своих диагнозах, они живут как обычные молодые люди. Но однажды болезнь напомнила о себе. Рома, понимает, что состояние Юли ухудшается и медицина здесь бессильна. Веря в силу музыки, Рома решает исполнить Второй концерт Рахманинова в клинике, надеясь на то, что это может помочь Юле. Это история о первой любви, о самопожертвовании ради любимого человека, о неумирающей надежде…-Возраст: 12+-Качество: WEB-DL 1080p
Формат: MKV
Видео кодек: AVC
Аудио кодек: AC3

Видео: AVC, 1920 х 816 (16:9), 25,000 кадр/сек, 5 118 Кбит/сек, 0.103 bit/pixel
Аудио: AC3, 48000 Hz, 384 Kbps, 6 каналов
-

MediaInfo

General
Unique ID : 189587763470357265759378784350702586957 (0x8EA1466B5C60A59F8924C5F32036CC4D)
Complete name : D:\Раздачи\Вдвоем на льдине WEB-DL (1080p)\Вдвоем на льдине WEB-DL (1080p).mkv
Format : Matroska
Format version : Version 4 / Version 2
File size : 3.29 GiB
Duration : 1h 23mn
Overall bit rate : 5 614 Kbps
Movie name : Rustorrents.info
Encoded date : UTC 2016-06-28 05:59:06
Writing application : mkvmerge v6.1.0 ('Old Devil') built on Mar 4 2013 09:10:42
Writing library : libebml v1.3.0 + libmatroska v1.4.0
Video
ID : 1
Format : AVC
Format/Info : Advanced Video Codec
Format profile : [email protected]
Format settings, CABAC : Yes
Format settings, ReFrames : 4 frames
Codec ID : V_MPEG4/ISO/AVC
Duration : 1h 23mn
Bit rate : 5 118 Kbps
Width : 1 920 pixels
Height : 1 038 pixels
Display aspect ratio : 1.85:1
Frame rate mode : Constant
Frame rate : 25.000 fps
Color space : YUV
Chroma subsampling : 4:2:0
Bit depth : 8 bits
Scan type : Progressive
Bits/(Pixel*Frame) : 0.103
Stream size : 3.00 GiB (91%)
Title : Rustorrents.info
Language : Russian
Default : Yes
Forced : No
Color range : Limited
Color primaries : BT.709
Transfer characteristics : BT.709
Matrix coefficients : BT.709
Audio
ID : 2
Format : AC-3
Format/Info : Audio Coding 3
Mode extension : CM (complete main)
Format settings, Endianness : Big
Codec ID : A_AC3
Duration : 1h 23mn
Bit rate mode : Constant
Bit rate : 384 Kbps
Channel(s) : 6 channels
Channel positions : Front: L C R, Side: L R, LFE
Sampling rate : 48.0 KHz
Frame rate : 31.250 fps (1536 spf)
Compression mode : Lossy
Stream size : 230 MiB (7%)
Title : Rustorrents.info
Language : Russian
Default : Yes
Forced : No
Menu
00:00:00.000 : en:Глава 1
00:06:57.640 : en:Глава 2
00:10:30.200 : en:Глава 3
00:13:54.479 : en:Глава 4
00:18:14.359 : en:Глава 5
00:22:12.799 : en:Глава 6
00:26:06.279 : en:Глава 7
00:30:06.439 : en:Глава 8
00:34:42.639 : en:Глава 9
00:40:49.559 : en:Глава 10
00:45:58.838 : en:Глава 11
00:50:48.318 : en:Глава 12
00:55:20.517 : en:Глава 13
00:59:29.477 : en:Глава 14
01:04:13.717 : en:Глава 15
01:09:45.876 : en:Глава 16

Скриншоты


-Раздаю до первых 5-ти скачавших, на раздачи не возвращаюсь...-
Other forum [Profile] [PM]
Display posts from previous:    
Reply to topic

The time now is: Today 17:33

All times are GMT + 3 Hours



You cannot post new topics in this forum
You cannot reply to topics in this forum
You cannot edit your posts in this forum
You cannot delete your posts in this forum
You cannot vote in polls in this forum
You cannot attach files in this forum
You cannot download files in this forum