Today is a free download without charge Download

Морской бой / Battleship (Питер Берг / Peter Berg) [2012, США, Фантастика, боевик, триллер, приключения, военный]1080p

Reply to topic
 
Author
Message

Delia ®

Gender:

Longevity: 10 years

Posts: 1821

Торрент-статистика

Post 29-Aug-2012 10:13

[Quote]

Морской бойBattleship«Битва за Землю начнётся на воде»- Страна: США
Жанр: фантастика, боевик, триллер, приключения, военный
Год выпуска: 2012
Продолжительность: 02:11:15-Перевод: Дублированный
Субтитры:Русские (форс,полные), Английские
Режиссер: Питер Берг / Peter Berg
В ролях:
Тейлор Китч (Lieutenant Alex Hopper), Александр Скарсгард (Commander Stone Hopper), Рианна (Petty Officer Cora 'Weps' Raikes), Бруклин Декер (Sam), Таданобу Асано (Captain Yugi Nagata), Лиам Нисон (Admiral Shane), Джон Туи (Chief Petty Officer Walter 'The Beast' Lynch), Грегори Д. Гэдсон (Lieutenant Colonel Mick Canales), Джесси Племонс (Boatswain Mate Seaman Jimmy 'Ordy' Ord), Хамиш Линклэйтер (Cal Zapata), Питер МакНикол (Secretary of Defense), Джерри Феррара (Sampson JOOD Strodell)
Дублёры: Юрий Брежнев (Lieutenant Alex Hopper), Даниил Щебланов (Commander Stone Hopper), Анастасия Нестеренко (Petty Officer Cora 'Weps' Raikes), Елена Ивасишина (Sam), Даниил Эльдаров (Captain Yugi Nagata), Владимир Антоник (Admiral Shane), Всеволод Кузнецов (Chief Petty Officer Walter 'The Beast' Lynch), Сергей Чихачев (Lieutenant Colonel Mick Canales), Олег Новиков (Boatswain Mate Seaman Jimmy 'Ordy' Ord), Сергей Бурунов (Secretary of Defense), Александр Гаврилин (Dr. Nogrady), Дмитрий Курта-Описание: Мы посылаем сигналы в космос и ждем ответа. Но уверены ли мы, что хотим его получить? Что если пришельцы потенциально опасны? В 2009 году на конференции в Вашингтоне астронавт Эдгар Митчелл, побывавший на Луне, сделал сенсационное заявление о существовании внеземной жизни. Теперь мы знаем, контакт не просто возможен, он неизбежен!-
MPAA: PG-13 - Детям до 13 лет просмотр не желателен-Качество: BDRip
Контейнер: MKV
Видео: 1920x800 (2,40:1), 23.976 fps, 7570 kbps
Аудио №1: AC-3, 6 ch, 448 kbps (Rus)
Аудио №2: AC-3, 6 ch, 448 kbps (Eng)
Навигация по главам: есть-

Media Info

Код:
Общее
Уникальный идентификатор : 243975306251359799873893033108104145166 (0xB78BEF4F0E6C5249818E4E53C599E90E)
Полное имя : Battleship.2012.BDRip.1080p.Rus.Eng.mkv
Формат : Matroska
Версия формата : Version 2
Размер файла : 7,76 Гбайт
Продолжительность : 2 ч. 11 м.
Общий поток : 8467 Кбит/сек
Название фильма : Морской бой / Battleship (2012)
Дата кодирования : UTC 2012-08-22 10:10:17
Программа кодирования : mkvmerge v5.7.0 ('The Whirlwind') built on Jul 8 2012 20:08:51
Библиотека кодирования : libebml v1.2.3 + libmatroska v1.3.0
Видео
Идентификатор : 1
Формат : AVC
Формат/Информация : Advanced Video Codec
Профиль формата : [email protected]
Параметр CABAC формата : Да
Параметр ReFrames формата : 5 кадров
Идентификатор кодека : V_MPEG4/ISO/AVC
Продолжительность : 2 ч. 11 м.
Битрейт : 7570 Кбит/сек
Ширина : 1920 пикселей
Высота : 800 пикселей
Соотношение сторон : 2,40:1
Частота кадров : 23,976 кадра/сек
Цветовое пространство : YUV
Субдискретизация насыщенности : 4:2:0
Битовая глубина : 8 бит
Тип развёртки : Прогрессивная
Бит/(Пиксели*Кадры) : 0.206
Размер потока : 6,79 Гбайт (87%)
Заголовок : Release by AlexKa
Библиотека кодирования : x264 core 125 r2208 d9d2288
Настройки программы : cabac=1 / ref=5 / deblock=1:0:0 / analyse=0x3:0x133 / me=umh / subme=10 / psy=1 / psy_rd=1.00:0.10 / mixed_ref=1 / me_range=32 / chroma_me=1 / trellis=2 / 8x8dct=1 / cqm=0 / deadzone=21,11 / fast_pskip=0 / chroma_qp_offset=-3 / threads=12 / lookahead_threads=2 / sliced_threads=0 / nr=0 / decimate=0 / interlaced=0 / bluray_compat=0 / constrained_intra=0 / bframes=5 / b_pyramid=2 / b_adapt=2 / b_bias=0 / direct=3 / weightb=1 / open_gop=0 / weightp=2 / keyint=240 / keyint_min=23 / scenecut=40 / intra_refresh=0 / rc=2pass / mbtree=0 / bitrate=7570 / ratetol=1.0 / qcomp=0.60 / qpmin=0 / qpmax=69 / qpstep=4 / cplxblur=20.0 / qblur=0.5 / ip_ratio=1.40 / pb_ratio=1.30 / aq=1:0.70
Язык : English
Аудио #1
Идентификатор : 2
Формат : AC-3
Формат/Информация : Audio Coding 3
Расширение режима : CM (complete main)
Идентификатор кодека : A_AC3
Продолжительность : 2 ч. 11 м.
Вид битрейта : Постоянный
Битрейт : 448 Кбит/сек
Каналы : 6 каналов
Расположение каналов : Front: L C R, Side: L R, LFE
Частота : 48,0 КГц
Битовая глубина : 16 бит
Метод сжатия : С потерями
Размер потока : 421 Мбайт (5%)
Заголовок : Rus
Язык : Russian
Аудио #2
Идентификатор : 3
Формат : AC-3
Формат/Информация : Audio Coding 3
Расширение режима : CM (complete main)
Идентификатор кодека : A_AC3
Продолжительность : 2 ч. 11 м.
Вид битрейта : Постоянный
Битрейт : 448 Кбит/сек
Каналы : 6 каналов
Расположение каналов : Front: L C R, Side: L R, LFE
Частота : 48,0 КГц
Битовая глубина : 16 бит
Метод сжатия : С потерями
Размер потока : 421 Мбайт (5%)
Заголовок : Eng
Язык : English
Текст #1
Идентификатор : 4
Формат : UTF-8
Идентификатор кодека : S_TEXT/UTF8
Идентификатор кодека/Информация : UTF-8 Plain Text
Заголовок : Rus forced
Язык : Russian
Текст #2
Идентификатор : 5
Формат : UTF-8
Идентификатор кодека : S_TEXT/UTF8
Идентификатор кодека/Информация : UTF-8 Plain Text
Заголовок : Rus
Язык : Russian
Текст #3
Идентификатор : 6
Формат : UTF-8
Идентификатор кодека : S_TEXT/UTF8
Идентификатор кодека/Информация : UTF-8 Plain Text
Заголовок : Eng
Язык : English
Меню
00:00:00.000 : :Chapter 01
00:09:24.105 : :Chapter 02
00:15:04.320 : :Chapter 03
00:23:08.678 : :Chapter 04
00:29:44.032 : :Chapter 05
00:36:26.809 : :Chapter 06
00:42:01.268 : :Chapter 07
00:49:09.655 : :Chapter 08
00:56:08.323 : :Chapter 09
01:00:02.223 : :Chapter 10
01:09:50.519 : :Chapter 11
01:15:26.730 : :Chapter 12
01:20:56.935 : :Chapter 13
01:29:47.423 : :Chapter 14
01:37:14.411 : :Chapter 15
01:43:32.247 : :Chapter 16
01:49:38.572 : :Chapter 17
01:56:20.682 : :Chapter 18
02:00:41.359 : :Chapter 19
02:09:33.974 : :Chapter 20
02:11:14.658 : :Chapter 21

Скриншоты

     

_________________
Человек – это канат, натянутый между животным и сверхчеловеком, – канат над пропастью.
В человеке ценно то, что он мост, а не цель. Фридрих Ницше
Other forum [Profile] [PM]
Similar theme
Forum Topic Author Torrent Replies Last Post
./templates/default/images/folder_dl.gif Техническая и научно-популярная литература А.В.Карпенко, Н.И.Шумков | Морские комплексы с баллистическими ракетами (2009) [PDF] NarDok
1 | 0

0 | 605

1

2015-03-14 17:08
NarDok Latest
Display posts from previous:    
Reply to topic

The time now is: Today 09:59

All times are GMT + 3 Hours



You cannot post new topics in this forum
You cannot reply to topics in this forum
You cannot edit your posts in this forum
You cannot delete your posts in this forum
You cannot vote in polls in this forum
You cannot attach files in this forum
You cannot download files in this forum