Today is a free download without charge Download

Душа шпиона (Владимир Бортко) [2015, Россия, драма, детектив, HDTV 1080i]

Reply to topic
 
Author
Message

Omen ®

Longevity: 8 years 10 months

Posts: 181086

Торрент-статистика

Post 29-Jun-2016 09:03

[Quote]

Душа шпиона- -Страна: Россия
Жанр: драма, детектив
Год выпуска: 2015
Производство: «"Студия "ТРИТЭ", "Студия "2-Б-2" Интертэйнмент", "Телекомпания"»
Продолжительность: 01:44:54
Оригинальная аудиодорожка: русский
Cубтитры: нет-Режиссер: Владимир Бортко-В ролях:
Андрей Чернышов, Фёдор Бондарчук, Даниил Спиваковский, Марина Александрова, Малкольм МакДауэлл, Сандрин Боннэр, Лайэм Каннингхэм, Михаил Ефремов,
Армен Джигарханян, Нина Гогаева, Кристина Бродская, Алексей Булдаков, Алексей Панин, Рудольф Фурманов, Ольга Дроздова, Мария Жиганова, Анна Екатерининская, Виталий Кривонос-Описание:
Перед российским шпионом в Англии Алексом Уилки стоит задача проникнуть в американскую разведку и выявить крота — нашего разведчика, передающего врагу агентурные сведения. Герой вынужден преодолевать невероятные препятствия, чтобы войти в доверие к американцам…-Возраст: 16+-Качество: HDTV (1080i)
Формат: TS
Видео кодек: AVC
Аудио кодек: MPEG Audio

Видео: AVC, 1920 х 1080 (16:9), 25,000 кадр/сек, 7 866 Кбит/сек, 0.152 bit/pixel
Аудио: MPEG Audio 2, 48000 Hz, 192 Kbps, 2 канала
-

MediaInfo

General
ID : 1 (0x1)
Complete name : D:\Раздачи\Душа шпиона HDTV (1080i)\Душа шпиона HDTV (1080i).ts
Format : MPEG-TS
File size : 6.21 GiB
Duration : 1h 44mn
Overall bit rate mode : Variable
Overall bit rate : 8 479 Kbps
Video
ID : 2911 (0xB5F)
Menu ID : 1080 (0x438)
Format : AVC
Format/Info : Advanced Video Codec
Format profile : [email protected]
Format settings, CABAC : Yes
Format settings, ReFrames : 4 frames
Codec ID : 27
Duration : 1h 44mn
Bit rate : 7 866 Kbps
Width : 1 920 pixels
Height : 1 080 pixels
Display aspect ratio : 16:9
Frame rate : 25.000 fps
Color space : YUV
Chroma subsampling : 4:2:0
Bit depth : 8 bits
Scan type : MBAFF
Scan type, store method : Interleaved fields
Scan order : Top Field First
Bits/(Pixel*Frame) : 0.152
Stream size : 5.76 GiB (93%)
Audio
ID : 2912 (0xB60)
Menu ID : 1080 (0x438)
Format : MPEG Audio
Format version : Version 1
Format profile : Layer 2
Mode : Joint stereo
Mode extension : Intensity Stereo + MS Stereo
Codec ID : 3
Duration : 1h 44mn
Bit rate mode : Constant
Bit rate : 192 Kbps
Channel(s) : 2 channels
Sampling rate : 48.0 KHz
Compression mode : Lossy
Stream size : 144 MiB (2%)
Language : Russian

Скриншоты


-Раздаю до первых 5-ти скачавших, на раздачи не возвращаюсь...-
Other forum [Profile] [PM]
Display posts from previous:    
Reply to topic

The time now is: Today 21:02

All times are GMT + 3 Hours



You cannot post new topics in this forum
You cannot reply to topics in this forum
You cannot edit your posts in this forum
You cannot delete your posts in this forum
You cannot vote in polls in this forum
You cannot attach files in this forum
You cannot download files in this forum