Today is a free download without charge Download

Сахара / Sahara (Брек Эйснер) [2005 г., боевик, комедия, приключения, BDRip 1080p]

Reply to topic
 
Author
Message

Delia ®

Gender:

Longevity: 10 years

Posts: 1821

Торрент-статистика

Post 28-Aug-2012 10:27

[Quote]

Сахара / Sahara«Большое приключение. Большие деньги. Большие неприятности.»--
Год выпуска: 2005
Страна: Великобритания , Испания , Германия , США
Жанр: боевик, триллер, комедия, приключения, ...
Продолжительность: 02:04:24
Перевод: Профессиональный (дублированный)
Субтитры: Russian , english (srt)
Режиссер: Брек Айснер
Сценарий: Томас Дин Доннелли, Джошуа Оппенхаймер, Джон С. Ричардс, ...
Продюсер: Мейс Нойфелд, Стефани Остин, Ховард Болдуин, ...
В ролях:
Мэттью МакКонахи (Dirk Pitt), Пенелопа Крус (Eva Rojas), Стив Зан (Al Giordino), Уильям Х. Мэйси (Admiral Jim Sandecker), Делрой Линдо (Carl), Ленни Джеймс (General Zateb Kazim), Патрик Мэлахайд (Ambassador Polidori), Рэйн Уилсон (Rudi Gunn), Ламбер Вильсон (Yves Massarde), Роберт Кавана (Captain Tombs), Джуд Акувидике (Imam), Марк Аспиналл (Lawyer)
Описание: Неистребимая жажда приключений толкает Дирка Пита в одну из самых опасных областей Западной Африки. Поиск несметных сокровищ Нила сопровождается страшной тайной — засекреченный «корабль смерти» повинен в гибели людей.Питу, вместе с другом, необходимо держать ухо востро, собрав воедино смекалку, мужество и героизм, чтобы помочь доктору Еве Рохас победить таинственную болезнь, уносящую человеческие жизни в результате действия и желания себе же подобных.-Рейтинг MPAA: --Релиз группы:
--Качество: BDRip
Формат: MKV
Видео кодек: H.264 (AVC)
Аудио кодеk: AC3
Видео: 1920x800 (2.40:1), 23.976 fps, AVC, 8 253 Kbps
Аудио: AC3, 448 Kbps, 48.0 KHz, 6 ch (DUB)
Аудио #2: AC3, 448 Kbps, 48.0 KHz, 6 ch (ENG)

Отдельно на народ.ру
AC3, 448 Kbps, 48.0 KHz, 6 ch( AVO Королев)

МедиаИнфо

Код:
General
Complete name                    : Sahara(2005)BDRip-F.HD.mkv
Format                           : Matroska
File size                        : 7.95 GiB
Duration                         : 2h 4mn
Overall bit rate                 : 9 151 Kbps
Encoded date                     : UTC 2012-08-28 06:20:22
Writing application              : mkvmerge v5.4.0 ('Piper') built on Mar 10 2012 13:34:39
Writing library                  : libebml v1.2.3 + libmatroska v1.3.0
Video
ID                               : 1
Format                           : AVC
Format/Info                      : Advanced Video Codec
Format profile                   : [email protected]
Format settings, CABAC           : Yes
Format settings, ReFrames        : 5 frames
Muxing mode                      : Container [email protected]
Codec ID                         : V_MPEG4/ISO/AVC
Duration                         : 2h 4mn
Bit rate                         : 8 253 Kbps
Width                            : 1 920 pixels
Height                           : 800 pixels
Display aspect ratio             : 2.40:1
Frame rate                       : 23.976 fps
Color space                      : YUV
Chroma subsampling               : 4:2:0
Bit depth                        : 8 bits
Scan type                        : Progressive
Bits/(Pixel*Frame)               : 0.224
Stream size                      : 7.02 GiB (88%)
Writing library                  : x264 core 125 r2208 d9d2288
Encoding settings                : cabac=1 / ref=5 / deblock=1:-3:-3 / analyse=0x3:0x113 / me=umh / subme=10 / psy=1 / psy_rd=1.00:0.15 / mixed_ref=1 / me_range=48 / chroma_me=1 / trellis=2 / 8x8dct=1 / cqm=0 / deadzone=21,11 / fast_pskip=0 / chroma_qp_offset=1 / threads=6 / lookahead_threads=1 / sliced_threads=0 / nr=0 / decimate=1 / interlaced=0 / bluray_compat=0 / constrained_intra=0 / bframes=7 / b_pyramid=2 / b_adapt=2 / b_bias=0 / direct=3 / weightb=1 / open_gop=0 / weightp=2 / keyint=240 / keyint_min=23 / scenecut=40 / intra_refresh=0 / rc=2pass / mbtree=0 / bitrate=8253 / ratetol=1.0 / qcomp=0.75 / qpmin=10 / qpmax=51 / qpstep=4 / cplxblur=20.0 / qblur=0.5 / ip_ratio=1.40 / pb_ratio=1.30 / aq=1:0.85
Color primaries                  : BT.709-5, BT.1361, IEC 61966-2-4, SMPTE RP177
Transfer characteristics         : BT.709-5, BT.1361
Matrix coefficients              : BT.709-5, BT.1361, IEC 61966-2-4 709, SMPTE RP177
Audio #1
ID                               : 2
Format                           : AC-3
Format/Info                      : Audio Coding 3
Mode extension                   : CM (complete main)
Codec ID                         : A_AC3
Duration                         : 2h 4mn
Bit rate mode                    : Constant
Bit rate                         : 448 Kbps
Channel(s)                       : 6 channels
Channel positions                : Front: L C R, Side: L R, LFE
Sampling rate                    : 48.0 KHz
Bit depth                        : 16 bits
Stream size                      : 399 MiB (5%)
Language                         : Russian
Audio #2
ID                               : 3
Format                           : AC-3
Format/Info                      : Audio Coding 3
Mode extension                   : CM (complete main)
Codec ID                         : A_AC3
Duration                         : 2h 4mn
Bit rate mode                    : Constant
Bit rate                         : 448 Kbps
Channel(s)                       : 6 channels
Channel positions                : Front: L C R, Side: L R, LFE
Sampling rate                    : 48.0 KHz
Bit depth                        : 16 bits
Stream size                      : 399 MiB (5%)
Text #1
ID                               : 4
Format                           : UTF-8
Codec ID                         : S_TEXT/UTF8
Codec ID/Info                    : UTF-8 Plain Text
Language                         : Russian
Text #2
ID                               : 5
Format                           : UTF-8
Codec ID                         : S_TEXT/UTF8
Codec ID/Info                    : UTF-8 Plain Text

Знаете ли Вы, что...

В списке кандидатов на главную роль побывали Том Круз (он был отвергнут из-за низкого роста), Джордж Клуни, Брюс Уиллис, Сильвестр Сталлоне. В главной роли автор романа Клайв Касслер видел Хью Джекмана, но тот, имея на руках контракт на «Людей Икс», не захотел стать участником еще одного долгосрочного киносериала.
По мере затягивания работы над сценарием все меньше актеров были готовы связать себя с этим проектом, запуск которого все время был под вопросом. По той же причине выбыл из проекта режиссер Роб Боуман.
На главную женскую роль была приглашена Пенелопа Круз, хотя Касслер настаивал на Сальме Хайек.
Постановщиком фильма стал Брек Эйснер, сын бывшего руководителя студии Disney Майкла Эйснера.
Три с половиной месяца съемки проходили в Марокко, месяц — в Испании и пять недель — в Лондоне.
Актеры прошли курс обучения езды на верблюдах, на которых им приходилось в течение полутора часов скакать галопом рядом с идущим поездом.
Рекламируя этот фильм, Мэттью МакКонахи исколесил всю Америку на своем трейлере, который был украшен логотипом «Сахары». Во время поездки актер жил на специальных стоянках и посещал стадионы.
Завод по переработки токсических отходов «сыграла» британская фабрика, на которой тестировались двигатели для самолетов «Concorde».
Задолго до начала работы над фильмом МакКонахи в одиночку путешествовал по Мали. Его опыт и сделанные им фотографии пригодились в процессе съемок.


Скриншоты

     
     

_________________
Человек – это канат, натянутый между животным и сверхчеловеком, – канат над пропастью.
В человеке ценно то, что он мост, а не цель. Фридрих Ницше


Last edited by Delia on 2012-09-28 13:48; edited 1 time in total
Other forum [Profile] [PM]

CRUSADER

Gender:

Longevity: 8 years 11 months

Posts: 4

Торрент-статистика

Post 28-Aug-2012 17:27 (after 7 hours)

[Quote]

Отличный фильм!!
Other forum [Profile] [PM]
Display posts from previous:    
Reply to topic

The time now is: Today 11:23

All times are GMT + 3 Hours



You cannot post new topics in this forum
You cannot reply to topics in this forum
You cannot edit your posts in this forum
You cannot delete your posts in this forum
You cannot vote in polls in this forum
You cannot attach files in this forum
You cannot download files in this forum