Today is a free download without charge Download

Гнев / Man on Fire (Тони Скотт / Tony Scott) [2004 г., триллер, драма, криминал, BDRip-AVC]

Reply to topic
 
Author
Message

Meshanik ®

Gender:

Longevity: 8 years 10 months

Posts: 3866

Location: Los Angeles

Торрент-статистика

Post 27-Aug-2012 21:25

[Quote]

-Гнев / Man on Fire
«His specialty is death, and he is preparing his masterpiece.»
-- Год выпуска: 2004 г.
Производство: США, Великобритания
Жанр: триллер, драма, криминал
Продолжительность: 02:26:08
Перевод: Профессиональный (полное дублирование)
Перевод: Профессиональный (одноголосый закадровый, Дмитрий «Гоблин» Пучков)
Перевод: Авторский (одноголосый закадровый, А.Гаврилов)
Оригинальный аудиопоток: английский
Субтитры: Русские, Английские
Режиссер: Тони Скотт / Tony Scott
В ролях: Дензел Вашингтон, Дакота Фаннинг, Марк Энтони, Рада Митчелл, Кристофер Уокен, Джанкарло Джаннини, Рейчел Тикотин, Хесус Очоа, Микки Рурк, Анджелина Пелаез
Описание: Состоятельные жители Мехико в панике: всего за шесть дней в городе пропали 24 человека! Бывшего агента ЦРУ Джона Кризи нанимают телохранителем девятилетней дочери промышленника Сэмюэля Рамоса, Питы Рамос. Поначалу Кризи с трудом терпит соседство не по годам развитой девочки.
Но со временем они становятся друзьями. Кризи вновь почувствовал вкус к жизни, но все рушится, когда Питу похищают. Кризи клянется убить любого, кто втянут в похищение Питы. Теперь его никто не остановит…-- --Качество видео: BDRip-AVC
Формат видео: MKV
Видео кодек: H.264
Аудио кодек: AC3
Видео: 1024x432, 23.976fps, 1828 Kbps, 0.172 bit/pixel
Аудио: 48.0 KHz, 6 ch, 256 Kbps Dub / VO / AVO / Eng

Media Info

General
Unique ID : 191280766772426480182357792092578906020 (0x8FE755ED3D4C8EEC9E89B6A2ACB3FFA4)
Complete name : O:\Jolly Roger\Man.on.Fire.2004.x264.BDRip-AVC.JRG.mkv
Format : Matroska
Format version : Version 2
File size : 2.91 GiB
Duration : 2h 26mn
Overall bit rate : 2 852 Kbps
Movie name : Man on Fire (2004) - The Jolly Roger by /*spam*/ [zyyx]
Encoded date : UTC 2012-08-27 15:24:51
Writing application : mkvmerge v5.6.0 ('Kenya Kane') built on Jun 29 2012 15:01:44
Writing library : libebml v1.2.3 + libmatroska v1.3.0
Video
ID : 1
Format : AVC
Format/Info : Advanced Video Codec
Format profile : [url=mailto:[email protected]][email protected][/url]
Format settings, CABAC : Yes
Format settings, ReFrames : 16 frames
Codec ID : V_MPEG4/ISO/AVC
Duration : 2h 26mn
Bit rate : 1 828 Kbps
Width : 1 024 pixels
Height : 432 pixels
Display aspect ratio : 2.40:1
Frame rate : 23.976 fps
Color space : YUV
Chroma subsampling : 4:2:0
Bit depth : 8 bits
Scan type : Progressive
Bits/(Pixel*Frame) : 0.172
Stream size : 1.81 GiB (62%)
Title : R.G. Jolly Roger
Writing library : x264 core 125 r2200 999b753
Encoding settings : cabac=1 / ref=16 / deblock=1:-1:-1 / analyse=0x3:0x133 / me=umh / subme=11 / psy=1 / psy_rd=1.00:0.10 / mixed_ref=1 / me_range=64 / chroma_me=1 / trellis=2 / 8x8dct=1 / cqm=0 / deadzone=21,11 / fast_pskip=0 / chroma_qp_offset=-3 / threads=32 / lookahead_threads=5 / sliced_threads=0 / nr=0 / decimate=1 / interlaced=0 / bluray_compat=0 / constrained_intra=0 / bframes=16 / b_pyramid=2 / b_adapt=2 / b_bias=0 / direct=3 / weightb=1 / open_gop=0 / weightp=2 / keyint=250 / keyint_min=23 / scenecut=40 / intra_refresh=0 / rc_lookahead=50 / rc=2pass / mbtree=1 / bitrate=1828 / ratetol=1.0 / qcomp=0.70 / qpmin=0 / qpmax=69 / qpstep=4 / cplxblur=20.0 / qblur=0.5 / ip_ratio=1.40 / aq=1:1.00
Language : English
Default : Yes
Forced : No
Audio #1
ID : 2
Format : AC-3
Format/Info : Audio Coding 3
Mode extension : CM (complete main)
Format settings, Endianness : Big
Codec ID : A_AC3
Duration : 2h 26mn
Bit rate mode : Constant
Bit rate : 256 Kbps
Channel(s) : 6 channels
Channel positions : Front: L C R, Side: L R, LFE
Sampling rate : 48.0 KHz
Bit depth : 16 bits
Compression mode : Lossy
Stream size : 268 MiB (9%)
Title : Dub
Language : Russian
Default : Yes
Forced : No
Audio #2
ID : 3
Format : AC-3
Format/Info : Audio Coding 3
Mode extension : CM (complete main)
Format settings, Endianness : Big
Codec ID : A_AC3
Duration : 2h 26mn
Bit rate mode : Constant
Bit rate : 256 Kbps
Channel(s) : 6 channels
Channel positions : Front: L C R, Side: L R, LFE
Sampling rate : 48.0 KHz
Bit depth : 16 bits
Compression mode : Lossy
Stream size : 268 MiB (9%)
Title : VO
Language : Russian
Default : No
Forced : No
Audio #3
ID : 4
Format : AC-3
Format/Info : Audio Coding 3
Mode extension : CM (complete main)
Format settings, Endianness : Big
Codec ID : A_AC3
Duration : 2h 26mn
Bit rate mode : Constant
Bit rate : 256 Kbps
Channel(s) : 6 channels
Channel positions : Front: L C R, Side: L R, LFE
Sampling rate : 48.0 KHz
Bit depth : 16 bits
Compression mode : Lossy
Stream size : 268 MiB (9%)
Title : AVO
Language : Russian
Default : No
Forced : No
Audio #4
ID : 5
Format : AC-3
Format/Info : Audio Coding 3
Mode extension : CM (complete main)
Format settings, Endianness : Big
Codec ID : A_AC3
Duration : 2h 26mn
Bit rate mode : Constant
Bit rate : 256 Kbps
Channel(s) : 6 channels
Channel positions : Front: L C R, Side: L R, LFE
Sampling rate : 48.0 KHz
Bit depth : 16 bits
Compression mode : Lossy
Stream size : 268 MiB (9%)
Language : English
Default : No
Forced : No
Text #1
ID : 6
Format : UTF-8
Codec ID : S_TEXT/UTF8
Codec ID/Info : UTF-8 Plain Text
Language : Russian
Default : Yes
Forced : No
Text #2
ID : 7
Format : UTF-8
Codec ID : S_TEXT/UTF8
Codec ID/Info : UTF-8 Plain Text
Language : Russian
Default : No
Forced : No
Text #3
ID : 8
Format : UTF-8
Codec ID : S_TEXT/UTF8
Codec ID/Info : UTF-8 Plain Text
Language : Russian
Default : No
Forced : No
Text #4
ID : 9
Format : UTF-8
Codec ID : S_TEXT/UTF8
Codec ID/Info : UTF-8 Plain Text
Language : Russian
Default : No
Forced : No
Text #5
ID : 10
Format : UTF-8
Codec ID : S_TEXT/UTF8
Codec ID/Info : UTF-8 Plain Text
Language : English
Default : No
Forced : No

Скриншоты

       
     
-
Other forum [Profile] [PM]

kir

Longevity: 8 years 8 months

Posts: 12

Торрент-статистика

Post 27-Aug-2012 22:06 (after 41 minute)

[Quote]

Один из немногоих фильмов голивуда, который можно смотреть, хотя и не лишон юсовского маразма, но все равно спасибо, хорошее кино.
Other forum [Profile] [PM]
Display posts from previous:    
Reply to topic

The time now is: Today 04:07

All times are GMT + 3 Hours



You cannot post new topics in this forum
You cannot reply to topics in this forum
You cannot edit your posts in this forum
You cannot delete your posts in this forum
You cannot vote in polls in this forum
You cannot attach files in this forum
You cannot download files in this forum