Today is a free download without charge Download

Ангелы Чарли / Charlie's Angels (МакДжи / McG) [2000 г., боевик, комедия, приключения, криминал, BDRip 1080p]

Reply to topic
 
Author
Message

Delia ®

Gender:

Longevity: 11 years

Posts: 1821

Торрент-статистика

Post 27-Aug-2012 10:50

[Quote]

Ангелы Чарли / Charlie's Angels«Прекрасные и опасные»--
Год выпуска: 2000
Страна: США , Германия
Жанр: боевик, триллер, комедия, криминал, приключения, ...
Продолжительность: 01:38:23
Перевод: Профессиональный (дублированный)
Субтитры: Russian (2v) , english (2v) (srt)
Режиссер: МакДжи
Сценарий: Райан Роу, Эд Соломон, Джон Огаст, ...
Продюсер: Дрю Бэрримор, Леонард Голдберг, Нэнси Джавонен, ...
Кэмерон Диаз (Natalie Cook), Дрю Бэрримор (Dylan Sanders), Люси Лью (Alex Munday), Билл Мюррей (John Bosley), Сэм Рокуэлл (Eric Knox), Келли Линч (Vivian Wood), Тим Карри (Roger Corwin), Криспин Гловер (Thin Man), Мэтт ЛеБлан (Jason Gibbons), LL Кул Джей (Mr. Jones), Том Грин (Chad), Люк Уилсон (Pete Komisky)
Описание: Ангелы Чарли, суперсекретное элитное спецподразделение, которому доверяют только невыполнимые задания. С помощью новейших технологий, современного оружия, боевых искусств и убийственного женского очарования Ангелы Чарли творят чудеса. Но настоящим испытанием станет лишь это последнее задание&3;-Рейтинг MPAA: --Релиз группы:
--Качество: BDRip
Формат: MKV
Видео кодек: H.264 (AVC)
Аудио кодеk: AC3
Видео: 1920x800 (2.40:1), 23.976 fps, AVC, 10.7 Mbps
Аудио: AC3, 448 Kbps, 48.0 KHz, 6 ch
Аудио #2: AC3, 384 Kbps, 48.0 KHz, 6 ch

Отдельно на народ.ру
AC3, 448 Kbps, 48.0 KHz, 6 ch (MVO)
AC3, 384 Kbps, 48.0 KHz, 6 ch (С. Визгунов)
AC3, 384 Kbps, 48.0 KHz, 6 ch (Л. Володарский)

МедиаИнфо

Код:
General
Complete name                    : Charlie's Angels(2000)BDRip-F.HD.mkv
Format                           : Matroska
File size                        : 7.95 GiB
Duration                         : 1h 38mn
Overall bit rate                 : 11.6 Mbps
Encoded date                     : UTC 2012-08-27 06:20:49
Writing application              : mkvmerge v5.4.0 ('Piper') built on Mar 10 2012 13:34:39
Writing library                  : libebml v1.2.3 + libmatroska v1.3.0
Video
ID                               : 1
Format                           : AVC
Format/Info                      : Advanced Video Codec
Format profile                   : [email protected]
Format settings, CABAC           : Yes
Format settings, ReFrames        : 5 frames
Muxing mode                      : Container [email protected]
Codec ID                         : V_MPEG4/ISO/AVC
Duration                         : 1h 38mn
Bit rate                         : 10.7 Mbps
Width                            : 1 920 pixels
Height                           : 800 pixels
Display aspect ratio             : 2.40:1
Frame rate                       : 23.976 fps
Color space                      : YUV
Chroma subsampling               : 4:2:0
Bit depth                        : 8 bits
Scan type                        : Progressive
Bits/(Pixel*Frame)               : 0.292
Stream size                      : 7.22 GiB (91%)
Writing library                  : x264 core 125 r2208 d9d2288
Encoding settings                : cabac=1 / ref=5 / deblock=1:-3:-3 / analyse=0x3:0x113 / me=umh / subme=10 / psy=1 / psy_rd=0.90:0.07 / mixed_ref=1 / me_range=48 / chroma_me=1 / trellis=2 / 8x8dct=1 / cqm=0 / deadzone=21,11 / fast_pskip=0 / chroma_qp_offset=1 / threads=6 / lookahead_threads=1 / sliced_threads=0 / nr=0 / decimate=1 / interlaced=0 / bluray_compat=0 / constrained_intra=0 / bframes=7 / b_pyramid=2 / b_adapt=2 / b_bias=0 / direct=3 / weightb=1 / open_gop=0 / weightp=2 / keyint=240 / keyint_min=23 / scenecut=40 / intra_refresh=0 / rc=2pass / mbtree=0 / bitrate=10736 / ratetol=1.0 / qcomp=0.75 / qpmin=0 / qpmax=40 / qpstep=4 / cplxblur=20.0 / qblur=0.5 / ip_ratio=1.20 / pb_ratio=1.20 / aq=1:0.65
Color primaries                  : BT.709-5, BT.1361, IEC 61966-2-4, SMPTE RP177
Transfer characteristics         : BT.709-5, BT.1361
Matrix coefficients              : BT.709-5, BT.1361, IEC 61966-2-4 709, SMPTE RP177
Audio #1
ID                               : 2
Format                           : AC-3
Format/Info                      : Audio Coding 3
Mode extension                   : CM (complete main)
Codec ID                         : A_AC3
Duration                         : 1h 38mn
Bit rate mode                    : Constant
Bit rate                         : 448 Kbps
Channel(s)                       : 6 channels
Channel positions                : Front: L C R, Side: L R, LFE
Sampling rate                    : 48.0 KHz
Bit depth                        : 16 bits
Stream size                      : 315 MiB (4%)
Language                         : Russian
Audio #2
ID                               : 3
Format                           : AC-3
Format/Info                      : Audio Coding 3
Mode extension                   : CM (complete main)
Codec ID                         : A_AC3
Duration                         : 1h 38mn
Bit rate mode                    : Constant
Bit rate                         : 384 Kbps
Channel(s)                       : 6 channels
Channel positions                : Front: L C R, Side: L R, LFE
Sampling rate                    : 48.0 KHz
Bit depth                        : 16 bits
Stream size                      : 270 MiB (3%)
Text #1
ID                               : 4
Format                           : UTF-8
Codec ID                         : S_TEXT/UTF8
Codec ID/Info                    : UTF-8 Plain Text
Title                            : (R5)
Language                         : Russian
Text #2
ID                               : 5
Format                           : UTF-8
Codec ID                         : S_TEXT/UTF8
Codec ID/Info                    : UTF-8 Plain Text
Title                            : "Superbit"
Language                         : Russian
Text #3
ID                               : 6
Format                           : UTF-8
Codec ID                         : S_TEXT/UTF8
Codec ID/Info                    : UTF-8 Plain Text
Text #4
ID                               : 7
Format                           : UTF-8
Codec ID                         : S_TEXT/UTF8
Codec ID/Info                    : UTF-8 Plain Text
Title                            : SDH
Menu
00:00:00.000                     : en:Chapter 01
00:05:23.448                     : en:Chapter 02
00:11:30.606                     : en:Chapter 03
00:18:14.092                     : en:Chapter 04
00:23:14.601                     : en:Chapter 05
00:28:45.473                     : en:Chapter 06
00:35:33.548                     : en:Chapter 07
00:39:43.672                     : en:Chapter 08
00:48:38.749                     : en:Chapter 09
00:52:18.677                     : en:Chapter 10
00:59:11.464                     : en:Chapter 11
01:03:02.737                     : en:Chapter 12
01:10:10.164                     : en:Chapter 13
01:15:42.079                     : en:Chapter 14
01:20:49.386                     : en:Chapter 15
01:23:20.078                     : en:Chapter 16

Знаете ли Вы, что...

» Бэрримор, один из продюсеров, не очень любит огнестрельное оружие, поэтому Ангелы представлены в фильме экспертами боевых искусств. Кэмерон Диаз, Дрю Бэрримор и Люси Лью прошли напряжённый курс подготовки к своей роли под руководством известного хореографа из Гонконга Юань Хэпин.
» Множество кандидатов было рассмотрено на роль Алекс, в том числе Бейонсе, Лорин Хилл и Виктория Бекхэм. Роль получила Тэнди Ньютон, однако впоследствии отказалась от неё. В итоге Алекс сыграла Люси Лью.
» Как заявила исландская певица Бьорк, её приглашали на роль злодея, но она предложение отклонила.


Скриншоты

       
       

_________________
Человек – это канат, натянутый между животным и сверхчеловеком, – канат над пропастью.
В человеке ценно то, что он мост, а не цель. Фридрих Ницше
Other forum [Profile] [PM]
Similar theme
Forum Topic Author Torrent Replies Last Post
./templates/default/images/folder_dl.gif Фантастика, фэнтези, ужасы, мистика Морган Ричард - Такеси Ковач 2, Сломанные ангелы [Сергей Краснов, (ЛИ), 2016 г., 192 kbps, MP3] Omen
1 | 0

0 | 712

1

2016-09-12 01:00
Omen Latest
Display posts from previous:    
Reply to topic

The time now is: Today 01:23

All times are GMT + 3 Hours



You cannot post new topics in this forum
You cannot reply to topics in this forum
You cannot edit your posts in this forum
You cannot delete your posts in this forum
You cannot vote in polls in this forum
You cannot attach files in this forum
You cannot download files in this forum