Today is a free download without charge Download

Улыбка Бога, или Чисто одесская история (Владимир Алеников) [2008 г., фэнтези, комедия, DVDRip]

Reply to topic
 
Author
Message

centrashi ®

Gender:

Longevity: 8 years 10 months

Posts: 51

Location: Украина

Торрент-статистика

Post 26-Aug-2012 15:03

[Quote]

Улыбка Бога, или Чисто одесская история
Год выпуска: 2008
Страна: Россия
Жанр: фэнтези, комедия
Продолжительность: 117 мин. / 01:57
Режиссер: Владимир Алеников
Продюссер: Валерий Горелов, Владимир Алеников, Георгий Голубенко
Сценарий: Владимир Алеников, Георгий Голубенко
Бюджет: $8 500 000
Премьера в мире: 26 ноября 2009
5.90 (70)

В ролях: Иван Жидков, Армен Джигарханян, Роман Карцев, Мария Горбань, Александр Панкратов-Черный, Тамара Тана, Нина Усатова, Сергей Мигицко, Вячеслав Гришечкин, Дмитрий Сергин
Описание: Богатый старый одессит Филипп Ольшанский, который в очередной раз собирается отойти в мир иной, созывает всю семью и объявляет о некоторых изменениях в завещании. Чтобы исполнить просьбу дедушки, его внуку Алэну приходится вылететь в Одессу. И здесь он попадает в череду приключений. Несмотря на то, что оставил в Америке свою прагматичную невесту, Алэн встречается с очаровательной рыжеволосой одесситкой и...
Качество: DVDRip
Формат: AVI
Видео кодек: XviD
Аудио кодек: AC3
Видео: MPEG-4 Visual at 1255 Кбит/сек 704 x 304 (2.316) at 25.000 fps
Аудио: AC-3 at 448 Кбит/сек 5 каналов, 48,0 КГц

Скриншоты

     

MediaInfo

Код:
Полное имя                       : D:\скчаное с торрента\Улыбка Бога или чисто Одесская история.avi
Формат                           : AVI
Формат/Информация                : Audio Video Interleave
Размер файла                     : 1,46 Гбайт
Продолжительность                : 2 ч. 2 м.
Общий поток                      : 1713 Кбит/сек
Название фильма                  : Улыбка Бога, или Чисто одесская история
Видео
Идентификатор                    : 0
Формат                           : MPEG-4 Visual
Профиль формата                  : Advanced [email protected]
Параметр BVOP формата            : 1
Параметр QPel формата            : Нет
Параметр GMC формата             : Без точки перехода
Параметр матрицы формата         : Выборочная
Идентификатор кодека             : XVID
Идентификатор кодека/Подсказка   : XviD
Продолжительность                : 2 ч. 2 м.
Битрейт                          : 1255 Кбит/сек
Ширина                           : 704 пикселя
Высота                           : 304 пикселя
Соотношение сторон               : 2,35:1
Частота кадров                   : 25,000 кадров/сек
Цветовое пространство            : YUV
Субдискретизация насыщенности    : 4:2:0
Битовая глубина                  : 8 бит
Тип развёртки                    : Прогрессивная
Метод сжатия                     : С потерями
Бит/(Пиксели*Кадры)              : 0.235
Размер потока                    : 1,07 Гбайт (73%)
Библиотека кодирования           : XviD 1.2.1 (UTC 2008-12-04)
Аудио
Идентификатор                    : 1
Формат                           : AC-3
Формат/Информация                : Audio Coding 3
Расширение режима                : CM (complete main)
Идентификатор кодека             : 2000
Продолжительность                : 2 ч. 1 м.
Вид битрейта                     : Постоянный
Битрейт                          : 448 Кбит/сек
Каналы                           : 5 каналов
Расположение каналов             : Front: L C R, Side: L R
Частота                          : 48,0 КГц
Битовая глубина                  : 16 бит
Метод сжатия                     : С потерями
Размер потока                    : 391 Мбайт (26%)
Выравнивание                     : Разделение по промежуткам
Продолжительность промежутка     : 40  мс. (1,00 видеокадр)
Время предзагрузки промежутка    : 500  мс.

_________________
Бороться и искать, найти и не сдваться.
Other forum [Profile] [PM]

cergo

Gender:

Longevity: 8 years 6 months

Posts: 80

Нарушений: 2

Location: Стерлитамак-Сити

Торрент-статистика

Post 27-Aug-2012 21:11 (after 1 day 6 hours)

[Quote]

centrashi, дайте скачать Хавчик

_________________
Other forum [Profile] [PM]
Display posts from previous:    
Reply to topic

The time now is: Today 20:38

All times are GMT + 3 Hours



You cannot post new topics in this forum
You cannot reply to topics in this forum
You cannot edit your posts in this forum
You cannot delete your posts in this forum
You cannot vote in polls in this forum
You cannot attach files in this forum
You cannot download files in this forum