Today is a free download without charge Download

Чёрная роза / Black Rose (Александр Невский) [2014, США, Россия, Детектив, триллер, криминал, WEB-DL 720p] Dub (iTunes)

Reply to topic
 
Author
Message

Omen ®

Longevity: 8 years 10 months

Posts: 181086

Торрент-статистика

Post 18-Jun-2016 15:33

[Quote]

Чёрная роза / Black Rose- Страна: США, Россия
Жанр: Детектив, триллер, криминал
Год выпуска: 2014
Продолжительность: 01:22:59-Перевод: Профессиональный (дублированный) (iTunes)
Cубтитры: нет
Оригинальная аудиодорожка: нет-Режиссер: Александр Невский
В ролях: Александр Невский, Кристанна Локен, Эдриан Пол, Роберт Дави, Роберт Мадрид, Маттиас Хьюз, Оксана Сидоренко, Эммануил Виторган, Ольга Родионова, Дмитрий Бикбаев
Описание: Майор московской полиции отправляется в Лос-Анджелес для помощи местным стражам порядка в расследовании серии убийств русских эмигрантов. Вместе с американской напарницей российский полицейский начинает погоню за новым Джеком Потрошителем.- -Тип релиза: WEB-DL 720p
Контейнер: MKV
Видео: AVC, 1280*720 (16:9), 3 934 Kbps, 24.00 fps
Аудио: AC-3, 48.0 KHz, 384 Kbps, 5.1 ch

MediaInfo

General
Unique ID : 253624245379548275550370065508863078898 (0xBECE40BCBCDA243DB4DF415DC22071F2)
Complete name : C:\Фильмы\Chernaya.Roza.2014.D.WEB-DL....mkv
Format : Matroska
Format version : Version 4 / Version 2
File size : 2.55 GiB
Duration : 1h 22mn
Overall bit rate : 4 406 Kbps
Encoded date : UTC 2014-05-28 16:48:48
Writing application : mkvmerge v6.5.0 ('Isn't she lovely') built on Oct 20 2013 12:50:05
Writing library : libebml v1.3.0 + libmatroska v1.4.1
Video
ID : 1
Format : AVC
Format/Info : Advanced Video Codec
Format profile : [email protected]
Format settings, CABAC : No
Format settings, ReFrames : 2 frames
Codec ID : V_MPEG4/ISO/AVC
Duration : 1h 22mn
Bit rate : 3 934 Kbps
Width : 1 280 pixels
Height : 720 pixels
Display aspect ratio : 16:9
Frame rate mode : Constant
Frame rate : 24.000 fps
Color space : YUV
Chroma subsampling : 4:2:0
Bit depth : 8 bits
Scan type : Progressive
Bits/(Pixel*Frame) : 0.178
Stream size : 2.28 GiB (89%)
Language : English
Default : Yes
Forced : No
Color range : Limited
Color primaries : BT.709
Transfer characteristics : BT.709
Matrix coefficients : BT.709
Audio
ID : 2
Format : AC-3
Format/Info : Audio Coding 3
Mode extension : CM (complete main)
Format settings, Endianness : Big
Codec ID : A_AC3
Duration : 1h 22mn
Bit rate mode : Constant
Bit rate : 384 Kbps
Channel(s) : 6 channels
Channel positions : Front: L C R, Side: L R, LFE
Sampling rate : 48.0 KHz
Frame rate : 31.250 fps (1536 spf)
Compression mode : Lossy
Stream size : 228 MiB (9%)
Language : Russian
Default : Yes
Forced : No
Menu
00:00:00.000 : en:Глава 1
00:07:20.000 : en:Глава 2
00:12:29.000 : en:Глава 3
00:18:29.000 : en:Глава 4
00:23:13.000 : en:Глава 5
00:28:52.000 : en:Глава 6
00:34:56.000 : en:Глава 7
00:41:30.000 : en:Глава 8
00:46:50.000 : en:Глава 9
00:52:02.000 : en:Глава 10
00:56:40.000 : en:Глава 11
01:01:40.000 : en:Глава 12
01:05:57.000 : en:Глава 13
01:10:59.000 : en:Глава 14
01:16:48.000 : en:Глава 15

Скриншоты

Other forum [Profile] [PM]
Display posts from previous:    
Reply to topic

The time now is: Today 18:31

All times are GMT + 3 Hours



You cannot post new topics in this forum
You cannot reply to topics in this forum
You cannot edit your posts in this forum
You cannot delete your posts in this forum
You cannot vote in polls in this forum
You cannot attach files in this forum
You cannot download files in this forum