Today is a free download without charge Download

Даша и людоед (Наталия Суринович) [2015, Россия, мультфильм, экранизация, WEBRip-AVC]

Reply to topic
 
Author
Message

Omen ®

Longevity: 7 years 11 months

Posts: 181087

Торрент-статистика

Post 18-Jun-2016 09:00

[Quote]

Даша и людоед
Страна: Россия
Жанр: мультфильм, экранизация
Продолжительность: 00:05:24
Год выпуска: 2015
Режиссёр: Наталия Суринович
Роли озвучивали: Андрей Ярославцев, Лариса Брохман, Наталия Суринович, Алексей Яковель
Описание: По шуточной страшилке Валерия Роньшина.
Маленькая, но очень бойкая Даша как-то раз сильно рассердила старшую сестру. Сестра пригрозила Даше, что придёт людоед и съест её, но Даша заявила, что ей это не страшно. Тут к ним в гости людоед и пожаловал...
Качество: WEBRip-AVC
Формат: MP4
Видео: 932 kbps, 1280х720 (16:9), 25.000 fps, AVC ([email protected])
Аудио: 126 kbps, 44.1 kHz, 2 channels, AAC (LC)
Субтитры: отсутствуют

Подробные технические данные

GeneralComplete name : Даша и людоед (2015).mp4Format : MPEG-4Format profile : Base Media / Version 2Codec ID : mp42File size : 41.0 MiBDuration : 5mn 24sOverall bit rate mode : VariableOverall bit rate : 1 061 KbpsEncoded date : UTC 2016-05-28 04:03:23Tagged date : UTC 2016-05-28 04:03:23gsst : 0gstd : 324243
VideoID : 1Format : AVCFormat/Info : Advanced Video CodecFormat profile : [email protected] settings, CABAC : YesFormat settings, ReFrames : 3 framesCodec ID : avc1Codec ID/Info : Advanced Video CodingDuration : 5mn 24sBit rate : 932 KbpsWidth : 1 280 pixelsHeight : 720 pixelsDisplay aspect ratio : 16:9Frame rate mode : ConstantFrame rate : 25.000 fpsColor space : YUVChroma subsampling : 4:2:0Bit depth : 8 bitsScan type : ProgressiveBits/(Pixel*Frame) : 0.040Stream size : 36.0 MiB (88%)Title : ISO Media file produced by Google Inc.Encoded date : UTC 2016-05-28 04:03:23Tagged date : UTC 2016-05-28 04:03:23Color primaries : BT.709Transfer characteristics : BT.709Matrix coefficients : BT.709
AudioID : 2Format : AACFormat/Info : Advanced Audio CodecFormat profile : LCCodec ID : 40Duration : 5mn 24sBit rate mode : VariableBit rate : 126 KbpsChannel(s) : 2 channelsChannel positions : Front: L RSampling rate : 44.1 KHzCompression mode : LossyStream size : 4.85 MiB (12%)Title : ISO Media file produced by Google Inc.Encoded date : UTC 2016-05-28 04:03:23Tagged date : UTC 2016-05-28 04:03:23

Скриншоты

Other forum [Profile] [PM]
Display posts from previous:    
Reply to topic

The time now is: Today 05:05

All times are GMT + 3 Hours



You cannot post new topics in this forum
You cannot reply to topics in this forum
You cannot edit your posts in this forum
You cannot delete your posts in this forum
You cannot vote in polls in this forum
You cannot attach files in this forum
You cannot download files in this forum