Today is a free download without charge Download

Коридор / The Corridor (2010) [H.264] HDRip

Reply to topic
 
Author
Message

KirovSOFT ®

Gender:

Longevity: 9 years 2 months

Posts: 998

Location: Кировская область -Оричи

Торрент-статистика

Post 25-Aug-2012 11:09

[Quote]

Коридор / The Corridor (2010) [H.264] HDRip «Enter At Your Own Risk»- Русское название: Коридор
Оригинальное название: The Corridor
Год выпуска: 2010
Жанр: Ужасы, Триллер
Описание фильма:
Тайлер Кроули знаком со своими лучшими друзьями уже более 10 лет, однако все меняется, теперь они поженились, полысели, продвинулись по службе. В выходные дни, отправляясь на отдых в загородный дом, бродя по местности друзья обнаруживают в лесу, пространственную деформацию "Призрачный коридор", в котором ни один из них никогда до этого не был. И в этом коридоре они испытают страх и начинают потихоньку слетать с катушек...
Режиссер: Ивэн Келли
Продюсер: Крэйг Камерон
Актеры: Мэтью Амиоттэ, Найджел Беннетт, Стивен Чэмберс, Мэри-Колин Чишолм, Дэвид Флемминг, Джеймс Гилберт, Глен Мэтью
Продолжительность: 01:38:53
Перевод: Одноголосый закадровый
Автор перевода: Janetta
Озвучка: den904-
Видеокодек: MPEG-4 AVC/H.264
Битрейт видео: ~2150 Кбит/сек
Размер кадра: 720 x 304 (2,35:1)
Качество видео: HDRip
Аудио 1: AC3 5.1, 448 Кбит/сек, 48,0 КГц - Английский
Аудио 2: AC3 5.1, 448 Кбит/сек, 48,0 КГц - Русский

MediaInfo:

Общее
Уникальный идентификатор : 231965968976152525285563436518447376288 (0xAE830544459E75B1BB8566823FFDE7A0)
Полное имя : Z:\Video\The.Corridor.2010.HDRip.x264.z0mbie.mkv
Формат : Matroska
Версия формата : Version 2
Размер файла : 2,05 Гбайт
Продолжительность : 1 ч. 38 м.
Общий поток : 2971 Кбит/сек
Программа кодирования : mkvmerge v5.7.0 ('The Whirlwind') built on Jul 8 2012 20:08:51
Библиотека кодирования : libebml v1.2.3 + libmatroska v1.3.0
Видео
Идентификатор : 1
Формат : AVC
Формат/Информация : Advanced Video Codec
Профиль формата : [url=mailto:[email protected]][email protected][/url]
Параметр CABAC формата : Да
Параметр ReFrames формата : 3 кадра
Режим смешивания : Header stripping
Идентификатор кодека : V_MPEG4/ISO/AVC
Продолжительность : 1 ч. 38 м.
Битрейт : 2016 Кбит/сек
Номинальный битрейт : 2150 Кбит/сек
Ширина : 720 пикселей
Высота : 304 пикселя
Соотношение сторон : 2,35:1
Частота кадров : 23,976 кадра/сек
Цветовое пространство : YUV
Субдискретизация насыщенности : 4:2:0
Битовая глубина : 8 бит
Тип развёртки : Прогрессивная
Бит/(Пиксели*Кадры) : 0.384
Размер потока : 1,39 Гбайт (68%)
Заголовок : The Corridor (2010) Rip by z0mbie
Библиотека кодирования : x264 core 75 r1251kMod e553a4c
Настройки программы : cabac=1 / ref=3 / deblock=1:0:0 / analyse=0x3:0x113 / me=hex / subme=7 / psy=1 / psy_rd=1.0:0.0 / mixed_ref=1 / me_range=16 / chroma_me=1 / trellis=1 / 8x8dct=1 / cqm=0 / deadzone=21,11 / chroma_qp_offset=-2 / threads=3 / nr=0 / decimate=1 / mbaff=0 / bframes=3 / b_pyramid=0 / b_adapt=1 / b_bias=0 / direct=1 / wpredb=1 / keyint=250 / keyint_min=25 / scenecut=40 / rc_lookahead=40 / rc=abr / mbtree=1 / bitrate=2150 / ratetol=1.0 / qcomp=0.60 / qpmin=10 / qpmax=51 / qpstep=4 / ip_ratio=1.40 / aq=1:1.00
Default : Да
Forced : Нет
Аудио #1
Идентификатор : 2
Формат : AC-3
Формат/Информация : Audio Coding 3
Расширение режима : CM (complete main)
Параметр Endianness формата : Big
Режим смешивания : Header stripping
Идентификатор кодека : A_AC3
Продолжительность : 1 ч. 38 м.
Вид битрейта : Постоянный
Битрейт : 448 Кбит/сек
Каналы : 6 каналов
Расположение каналов : Front: L C R, Side: L R, LFE
Частота : 48,0 КГц
Битовая глубина : 16 бит
Метод сжатия : С потерями
Размер потока : 317 Мбайт (15%)
Заголовок : English 5.1
Язык : English
Default : Нет
Forced : Нет
Аудио #2
Идентификатор : 3
Формат : AC-3
Формат/Информация : Audio Coding 3
Расширение режима : CM (complete main)
Параметр Endianness формата : Big
Режим смешивания : Header stripping
Идентификатор кодека : A_AC3
Продолжительность : 1 ч. 38 м.
Вид битрейта : Постоянный
Битрейт : 448 Кбит/сек
Каналы : 6 каналов
Расположение каналов : Front: L C R, Side: L R, LFE
Частота : 48,0 КГц
Битовая глубина : 16 бит
Метод сжатия : С потерями
Размер потока : 317 Мбайт (15%)
Заголовок : Russian 5.1
Язык : Russian
Default : Да
Forced : Нет
Скриншоты
         

_________________
Other forum [Profile] [PM]

Князь28

Gender:

Longevity: 9 years 1 month

Posts: 4

Location: Воронеж

Торрент-статистика

Post 25-Aug-2012 14:58 (after 3 hours)

[Quote]

Кто смотрел отпишитемь!
Other forum [Profile] [PM]
Display posts from previous:    
Reply to topic

The time now is: Today 04:20

All times are GMT + 3 Hours



You cannot post new topics in this forum
You cannot reply to topics in this forum
You cannot edit your posts in this forum
You cannot delete your posts in this forum
You cannot vote in polls in this forum
You cannot attach files in this forum
You cannot download files in this forum