Today is a free download without charge Download

500 дней лета / (500) Days of Summer (Марк Уэбб / Marc Webb) [1080p] [2009 г., Комедия, мелодрама, драма, BDRip]

Reply to topic
 
Author
Message

Delia ®

Gender:

Longevity: 10 years

Posts: 1821

Торрент-статистика

Post 25-Aug-2012 10:27

[Quote]

500 дней лета / (500) Days of Summer«Это не любовная история, это история о любви»--
Год выпуска: 2009
Страна: США
Жанр: мелодрама, комедия, ...
Продолжительность: 01:35:04
Перевод: Профессиональный (дублированный)
Субтитры: Russian (2v), Russian (forsed), English (srt)
Режиссер: Марк Уэбб
Сценарий: Скотт Нейстадтер, Майкл Х. Уэбер
Продюсер: Мэйсон Новик, Джессика Тучински, Марк С. Уотерс, ...-Джозеф Гордон-Левитт (Tom), Зои Дешанель (Summer), Джеффри Аренд (McKenzie), Хлоя Грейс Морец (Rachel), Мэттью Грей Гублер (Paul), Кларк Грегг (Vance), Патриция Белчер (Millie), Рейчел Бостон (Alison), Минка Келли (Autumn - Girl at interview), Чарльз Уолкер (Millie's New Husband), Йен Рид Кеслер (Douche), Дэррил Алан Рид (Bus Driver)
Описание: Главный герой работает в агентстве, выпускающем поздравительные открытки. Он придумывает все те забавные подписи, которые мы с Вами читаем на них. Молодой человек влюбляется в свою коллегу и решает, что она — «та, единственная». Но 500 дней их отношений показывают герою, что путь к счастью непредсказуем, неконтролируем и — невероятно забавен!-Рейтинг MPAA: --Релиз группы:
--Качество: BDRip
Формат: MKV
Видео кодек: H.264 (AVC)
Аудио кодеk: AC3
Видео: 1920x800 (2.40:1), 23.976 fps, AVC, 10.5 Mbps
Аудио: AC3, 640 Kbps, 48.0 KHz, 6 ch (дубляж)
Аудио #2: AC3, 448 Kbps, 48.0 KHz, 6 ch (AVO. Карповский)
Аудио #3: AC3, 384 Kbps, 48.0 KHz, 6 ch (оригинал)

МедиаИнфо

Код:
General
Complete name                    : 500.Dney.Leta.2009BDRip-F.HD .mkv
Format                           : Matroska
File size                        : 7.95 GiB
Duration                         : 1h 35mn
Overall bit rate                 : 12.0 Mbps
Encoded date                     : UTC 2012-08-25 06:33:07
Writing application              : mkvmerge v5.4.0 ('Piper') built on Mar 10 2012 13:34:39
Writing library                  : libebml v1.2.3 + libmatroska v1.3.0
Video
ID                               : 1
Format                           : AVC
Format/Info                      : Advanced Video Codec
Format profile                   : [email protected]
Format settings, CABAC           : Yes
Format settings, ReFrames        : 5 frames
Muxing mode                      : Container [email protected]
Codec ID                         : V_MPEG4/ISO/AVC
Duration                         : 1h 35mn
Bit rate                         : 10.5 Mbps
Width                            : 1 920 pixels
Height                           : 800 pixels
Display aspect ratio             : 2.40:1
Frame rate                       : 23.976 fps
Color space                      : YUV
Chroma subsampling               : 4:2:0
Bit depth                        : 8 bits
Scan type                        : Progressive
Bits/(Pixel*Frame)               : 0.285
Stream size                      : 6.81 GiB (86%)
Writing library                  : x264 core 125 r2208 d9d2288
Encoding settings                : cabac=1 / ref=5 / deblock=1:-2:-2 / analyse=0x3:0x113 / me=umh / subme=10 / psy=1 / psy_rd=1.03:0.15 / mixed_ref=1 / me_range=32 / chroma_me=1 / trellis=2 / 8x8dct=1 / cqm=0 / deadzone=21,11 / fast_pskip=0 / chroma_qp_offset=1 / threads=6 / lookahead_threads=1 / sliced_threads=0 / nr=0 / decimate=1 / interlaced=0 / bluray_compat=0 / constrained_intra=0 / bframes=10 / b_pyramid=2 / b_adapt=2 / b_bias=0 / direct=3 / weightb=1 / open_gop=0 / weightp=2 / keyint=240 / keyint_min=23 / scenecut=40 / intra_refresh=0 / rc=2pass / mbtree=0 / bitrate=10499 / ratetol=1.0 / qcomp=0.80 / qpmin=5 / qpmax=51 / qpstep=4 / cplxblur=20.0 / qblur=0.5 / ip_ratio=1.40 / pb_ratio=1.30 / aq=1:1.00
Audio #1
ID                               : 2
Format                           : AC-3
Format/Info                      : Audio Coding 3
Mode extension                   : CM (complete main)
Codec ID                         : A_AC3
Duration                         : 1h 35mn
Bit rate mode                    : Constant
Bit rate                         : 640 Kbps
Channel(s)                       : 6 channels
Channel positions                : Front: L C R, Side: L R, LFE
Sampling rate                    : 48.0 KHz
Bit depth                        : 16 bits
Stream size                      : 435 MiB (5%)
Title                            : DUB
Language                         : Russian
Audio #2
ID                               : 3
Format                           : AC-3
Format/Info                      : Audio Coding 3
Mode extension                   : CM (complete main)
Codec ID                         : A_AC3
Duration                         : 1h 35mn
Bit rate mode                    : Constant
Bit rate                         : 448 Kbps
Channel(s)                       : 6 channels
Channel positions                : Front: L C R, Side: L R, LFE
Sampling rate                    : 48.0 KHz
Bit depth                        : 16 bits
Stream size                      : 305 MiB (4%)
Title                            : AVO . Карповский
Language                         : Russian
Audio #3
ID                               : 4
Format                           : AC-3
Format/Info                      : Audio Coding 3
Mode extension                   : CM (complete main)
Codec ID                         : A_AC3
Duration                         : 1h 35mn
Bit rate mode                    : Constant
Bit rate                         : 384 Kbps
Channel(s)                       : 6 channels
Channel positions                : Front: L C R, Side: L R, LFE
Sampling rate                    : 48.0 KHz
Bit depth                        : 16 bits
Stream size                      : 261 MiB (3%)
Text #1
ID                               : 5
Format                           : UTF-8
Codec ID                         : S_TEXT/UTF8
Codec ID/Info                    : UTF-8 Plain Text
Language                         : Russian
Text #2
ID                               : 6
Format                           : UTF-8
Codec ID                         : S_TEXT/UTF8
Codec ID/Info                    : UTF-8 Plain Text
Title                            : AirMike73
Language                         : Russian
Text #3
ID                               : 7
Format                           : UTF-8
Codec ID                         : S_TEXT/UTF8
Codec ID/Info                    : UTF-8 Plain Text
Title                            : Forsed
Language                         : Russian
Text #4
ID                               : 8
Format                           : UTF-8
Codec ID                         : S_TEXT/UTF8
Codec ID/Info                    : UTF-8 Plain Text
Menu
00:00:00.000                     : en:Chapter 01
00:03:57.778                     : en:Chapter 02
00:07:05.424                     : en:Chapter 03
00:09:19.182                     : en:Chapter 04
00:13:34.145                     : en:Chapter 05
00:14:22.318                     : en:Chapter 06
00:16:53.428                     : en:Chapter 07
00:19:18.699                     : en:Chapter 08
00:24:29.925                     : en:Chapter 09
00:27:00.284                     : en:Chapter 10
00:30:39.753                     : en:Chapter 11
00:33:27.422                     : en:Chapter 12
00:35:33.505                     : en:Chapter 13
00:38:14.375                     : en:Chapter 14
00:43:46.873                     : en:Chapter 15
00:52:24.141                     : en:Chapter 16
00:56:47.152                     : en:Chapter 17
01:00:26.039                     : en:Chapter 18
01:06:24.729                     : en:Chapter 19
01:10:49.787                     : en:Chapter 20
01:15:15.051                     : en:Chapter 21
01:19:00.777                     : en:Chapter 22
01:21:22.917                     : en:Chapter 23
01:27:08.555                     : en:Chapter 24
01:35:04.323                     : en:Chapter 25

Знаете ли Вы, что...

» Цветовая гамма «500 дней лета» специально была подобрана под ярко-синие глаза Зои Дешанель.
» Когда Том Хенсон (Джозеф Гордон-Левитт) подходит к машине, в отражении он видит не себя, а Хана Соло (Харрисон Форд, кадры из Звездных войн).


Скриншоты

     
     
     

_________________
Человек – это канат, натянутый между животным и сверхчеловеком, – канат над пропастью.
В человеке ценно то, что он мост, а не цель. Фридрих Ницше
Other forum [Profile] [PM]
Display posts from previous:    
Reply to topic

The time now is: Today 02:57

All times are GMT + 3 Hours



You cannot post new topics in this forum
You cannot reply to topics in this forum
You cannot edit your posts in this forum
You cannot delete your posts in this forum
You cannot vote in polls in this forum
You cannot attach files in this forum
You cannot download files in this forum