Today is a free download without charge Download

Долгое прощание (Сергей Урсуляк) [2004, Россия, драма, HDTV 1080i]

Reply to topic
 
Author
Message

Omen ®

Longevity: 8 years 10 months

Posts: 181086

Торрент-статистика

Post 14-Jun-2016 09:03

[Quote]

Долгое прощание- -Страна: Россия
Жанр: драма
Год выпуска: 2004
Производство: «Кинокомпания «Филм-про», при поддержке Министерства культуры РФ»
Продолжительность: 01:48:35
Оригинальная аудиодорожка: русский
Cубтитры: нет-Режиссер: Сергей Урсуляк-В ролях:
Андрей Щенников, Полина Агуреева, Борис Каморзин, Константин Желдин, Татьяна Лебедькова, Генриетта Егорова, Евгений Киндинов, Валентина Шарыкина,
Николай Шейко, Александр Клюквин, Пётр Меркурьев, Евгения Дмитриева, Валерий Трошин, Геннадий Шумилов, Марина Дровосекова, Роман Кузнеченко,
Андрей Ребров, Владимир Щербаков, Андрей Рапопорт, Валентин Голубенко, Марина Донец, Инна Кара-Моско, Эльвира Кекеева, Фёдор Добронравов-Описание:
Ляля — молодая красивая актриса — очень любит своего мужа Гришу — непутевого, неустроенного, несостоявшегося писателя.
А Лялю любит взрослый, успешный, сильный мужик — прославленный драматург Смолянов.
Чего больше в отношениях Ляли к нему — любви или благодарности за налаженную жизнь, решенные проблемы и уверенность в завтрашнем дне?
Попытка соединить несоединимое, жить двумя жизнями одновременно, кончается крахом для всех участников этого треугольника, все углы которого болезненно-острые.-Возраст: 12+-Качество: HDTV (1080i)
Формат: TS
Видео кодек: AVC
Аудио кодек: MPEG Audio

Видео: AVC, 1920 х 1080 (16:9), 25,000 кадр/сек, 7 866 Кбит/сек, 0.152 bit/pixel
Аудио: MPEG Audio 2, 48000 Hz, 192 Kbps, 2 канала
-

MediaInfo

General
ID : 1 (0x1)
Complete name : D:\Раздачи\Долгое прощание HDTV (1080i)\Долгое прощание HDTV (1080i).ts
Format : MPEG-TS
File size : 6.43 GiB
Duration : 1h 48mn
Overall bit rate mode : Variable
Overall bit rate : 8 479 Kbps
Video
ID : 2911 (0xB5F)
Menu ID : 1080 (0x438)
Format : AVC
Format/Info : Advanced Video Codec
Format profile : [email protected]
Format settings, CABAC : Yes
Format settings, ReFrames : 4 frames
Codec ID : 27
Duration : 1h 48mn
Bit rate : 7 866 Kbps
Width : 1 920 pixels
Height : 1 080 pixels
Display aspect ratio : 16:9
Frame rate : 25.000 fps
Color space : YUV
Chroma subsampling : 4:2:0
Bit depth : 8 bits
Scan type : MBAFF
Scan type, store method : Interleaved fields
Scan order : Top Field First
Bits/(Pixel*Frame) : 0.152
Stream size : 5.97 GiB (93%)
Audio
ID : 2912 (0xB60)
Menu ID : 1080 (0x438)
Format : MPEG Audio
Format version : Version 1
Format profile : Layer 2
Mode : Joint stereo
Mode extension : Intensity Stereo + MS Stereo
Codec ID : 3
Duration : 1h 48mn
Bit rate mode : Constant
Bit rate : 192 Kbps
Channel(s) : 2 channels
Sampling rate : 48.0 KHz
Compression mode : Lossy
Stream size : 149 MiB (2%)
Language : Russian

Скриншоты

-Раздаю до первых 5-ти скачавших, на раздачи не возвращаюсь...-
Other forum [Profile] [PM]
Similar theme
Forum Topic Author Torrent Replies Last Post
./templates/default/images/folder_dl.gif Медицина и Здоровье Сергей Бубновский | Активное долголетие, или как вернуть молодость вашему телу (2015) [RTF, FB2] Omen
1 | 0

0 | 2316

15

2015-04-27 22:12
Omen Latest
Display posts from previous:    
Reply to topic

The time now is: Today 22:54

All times are GMT + 3 Hours



You cannot post new topics in this forum
You cannot reply to topics in this forum
You cannot edit your posts in this forum
You cannot delete your posts in this forum
You cannot vote in polls in this forum
You cannot attach files in this forum
You cannot download files in this forum