Today is a free download without charge Download

Швейцар (Аркадий Яхнис) [2014, Россия, триллер, HDTV 1080i]

Reply to topic
 
Author
Message

Omen ®

Longevity: 8 years 10 months

Posts: 181086

Торрент-статистика

Post 12-Jun-2016 12:00

[Quote]

Швейцар- -Страна: Россия
Жанр: триллер
Год выпуска: 2014
Производство: «Кинокомпания «Центр Юпитер ФМ»»
Продолжительность: 01:16:40
Оригинальная аудиодорожка: русский
Cубтитры: нет-Режиссер: Аркадий Яхнис-В ролях:
Мария Бердинских, Андрей Сергеев-Описание:
Он швейцар в респектабельном ресторане. Но у него есть и другая тайная жизнь. Он связан с криминальной группировкой, занимающейся похищением детей богатых родителей. Он никого никогда не убивал, он просто сторож. Как долго он готов сторожить? Сейчас в его квартире заложница — красивая 25-летняя девушка… Заложница и похититель попадают во взаимную зависимость: она полностью в его власти, он же находит в ней собеседника, которому может исповедаться…-Возраст: 16+-Качество: HDTV (1080i)
Формат: TS
Видео кодек: AVC
Аудио кодек: MPEG Audio

Видео: AVC, 1920 х 1080 (16:9), 25,000 кадр/сек, 7 530 Кбит/сек, 0.145 bit/pixel
Аудио: MPEG Audio 2, 48000 Hz, 192 Kbps, 2 канала
-

MediaInfo

General
ID : 1 (0x1)
Complete name : D:\Раздачи\Швейцар HDTV (1080i)\Швейцар HDTV (1080i).ts
Format : MPEG-TS
File size : 4.42 GiB
Duration : 1h 16mn
Overall bit rate mode : Variable
Overall bit rate : 8 249 Kbps
Video
ID : 256 (0x100)
Menu ID : 1234 (0x4D2)
Format : AVC
Format/Info : Advanced Video Codec
Format profile : [email protected]
Format settings, CABAC : Yes
Format settings, ReFrames : 3 frames
Codec ID : 27
Duration : 1h 16mn
Bit rate mode : Constant
Bit rate : 7 530 Kbps
Width : 1 920 pixels
Height : 1 080 pixels
Display aspect ratio : 16:9
Frame rate : 25.000 fps
Standard : PAL
Color space : YUV
Chroma subsampling : 4:2:0
Bit depth : 8 bits
Scan type : Progressive
Bits/(Pixel*Frame) : 0.145
Stream size : 4.00 GiB (90%)
Color range : Limited
Color primaries : BT.709
Transfer characteristics : BT.709
Matrix coefficients : BT.709
Audio #1
ID : 257 (0x101)
Menu ID : 1234 (0x4D2)
Format : MPEG Audio
Format version : Version 1
Format profile : Layer 2
Codec ID : 3
Duration : 1h 16mn
Bit rate mode : Constant
Bit rate : 192 Kbps
Channel(s) : 2 channels
Sampling rate : 48.0 KHz
Compression mode : Lossy
Stream size : 105 MiB (2%)
Language : English
Audio #2
ID : 258 (0x102)
Menu ID : 1234 (0x4D2)
Format : MPEG Audio
Format version : Version 1
Format profile : Layer 2
Codec ID : 3
Duration : 1h 16mn
Bit rate mode : Constant
Bit rate : 192 Kbps
Channel(s) : 2 channels
Sampling rate : 48.0 KHz
Compression mode : Lossy
Stream size : 105 MiB (2%)
Language : English

Скриншоты

-Раздаю до первых 5-ти скачавших, на раздачи не возвращаюсь...-
Other forum [Profile] [PM]
Display posts from previous:    
Reply to topic

The time now is: Today 14:11

All times are GMT + 3 Hours



You cannot post new topics in this forum
You cannot reply to topics in this forum
You cannot edit your posts in this forum
You cannot delete your posts in this forum
You cannot vote in polls in this forum
You cannot attach files in this forum
You cannot download files in this forum