Today is a free download without charge Download

Везуха! Серии: 1-45 (Елизавета Скворцова, Леонид Шмельков, Вера Мякишева, Елена Куркова, Алексей Будовский и др) [2010-2015, Россия, мультсериал, WEBRip-AVC]

Reply to topic
 
Author
Message

Omen ®

Longevity: 7 years 11 months

Posts: 181087

Торрент-статистика

Post 11-Jun-2016 03:00

[Quote]

Везуха!
Страна: Россия
Жанр: мультсериал
Продолжительность: 45 х 00:05:00
Год выпуска: 2010-2015
Перевод: не требуется
Русские субтитры: нет
Режиссёры: Елизавета Скворцова, Леонид Шмельков, Вера Мякишева, Елена Куркова, Анастасия Головань, Валерий Олькович, Наталия Дарвина (Хаткевич), Вероника Фёдорова, Наталья Антипова, Андрей Кузнецов, Елизавета Зилонова, Эдуард Митгарц, Владислав Байрамгулов, Албена Дюлгерова, Светлана Матросова, Ришат Гильметдинов, Алексей Миронов, Сергей Гордеев, Мария Соснина, Софья Трифонова, Анна Соловьёва, Алексей Будовский
Композитор: Олег Литвишко
Роли озвучивали: Лариса Брохман, Вадим Медведев, Мириам Сехон, Тимофей Трибунцев
Описание: Мультфильмы, поставленные молодыми режиссёрами по юмористическим рассказам современных детских писателей.
В центре всех сюжетов обаятельная семья Зиминых: папа Миша, мама Люся, сын Тимофей и верный пёс по имени Кит, а так же их разнообразные родственники и знакомые.
Качество: WEBRip-AVC
Формат: MP4
Видео: 2125 kbps, 1280х720 (16:9), 25.000 fps, AVC ([email protected])
Аудио: 192 kbps, 44.1 kHz, 2 channels, AAC (LC)
Субтитры: отсутствуют

Список эпизодов

01. Рыбный день. 1 серия (реж. Елизавета Скворцова)
02. Рыбный день. 2 серия (реж. Елизавета Скворцова)
03. Репетитор (реж. Анастасия Головань)
04. Все мы инопланетяне на этой Земле (реж. Леонид Шмельков)
05. Блохнесское чудовище (реж. Наталия Дарвина (Хаткевич))
06. Сейчас он придёт и будет весело (реж. Вера Мякишева)
07. Путник запоздалый (реж. Елизавета Скворцова)
08. Китовая любовь (реж. Леонид Шмельков)
09. Супер Cупер Cупер мальчик (реж. Леонид Шмельков)
10. Поликлиника. 1 серия (реж. Елена Куркова)
11. Поликлиника. 2 серия (реж. Елена Куркова)
12. Моя собака любит джаз (реж. Вероника Фёдорова)
13. Чёрные дыры (реж. Наталья Антипова)
14. Тайна пустой клетки (реж. Андрей Кузнецов)
15. Нечаянно нагрянет (реж. Елизавета Скворцова)
16. Василий Васильевич (реж. Леонид Шмельков)
17. Однажды директор (реж. Елена Куркова)
18. Нос (реж. Анастасия Головань)
19. Вместо папы на работу (реж. Елизавета Зилонова)
20. Дело чести (реж. Валерий Олькович)
21. ЧелоВЕЛОвек (реж. Леонид Шмельков)
22. Сила духа (реж. Эдуард Митгарц)
23. Я Вам пишу (реж. Владислав Байрамгулов)
24. Принц Папуака (реж. Албена Дюлгерова)
25. Синдром Отелло (реж. Светлана Матросова)
26. Сколько стоят сто рублей (реж. Ришат Гильметдинов)
27. Мой папа - Лев Толстой (реж. Анастасия Головань)
28. Без паники (реж. Валерий Олькович)
29. Роковое чувство (реж. Алексей Миронов)
30. Поводок (реж. Албена Дюлгерова)
31. Тимоха и Серый (реж. Сергей Гордеев)
32. Перевод с французского (реж. Ришат Гильметдинов)
33. Цаца /история первой любви/ (реж. Валерий Олькович)
34. Валенки (реж. Светлана Матросова)
35. Последний зуб мудрости (реж. Мария Соснина)
36. Ангел-телохранитель (реж. Валерий Олькович)
37. Другопланетянин (реж. Мария Соснина)
38. Мой дом (реж. Албена Дюлгерова)
39. От души и на память (реж. Светлана Матросова)
40. Превращения Тимохи (реж. Алексей Будовский)
41. Молоток (реж. Софья Трифонова)
42. Крайний случай (реж. Валерий Олькович)
43. Мявная история (реж. Анна Соловьёва)
44. Свояси (реж. Валерий Олькович)
45. Игромания (реж. Алексей Будовский)

Подробные технические данные

GeneralComplete name : Везуха! 01 Рыбный день. Часть 1.mp4Format : MPEG-4Format profile : Base Media / Version 2Codec ID : mp42File size : 83.0 MiBDuration : 5mn 0sOverall bit rate mode : VariableOverall bit rate : 2 320 KbpsEncoded date : UTC 2014-03-07 13:11:17Tagged date : UTC 2014-03-07 13:11:17gsst : 0gstd : 300093gssd : B5FB51045HH1425581045562482gshh : r2---sn-xapbiu-3xwl.googlevideo.com
VideoID : 1Format : AVCFormat/Info : Advanced Video CodecFormat profile : [email protected] settings, CABAC : YesFormat settings, ReFrames : 1 frameCodec ID : avc1Codec ID/Info : Advanced Video CodingDuration : 5mn 0sBit rate : 2 125 KbpsMaximum bit rate : 6 160 KbpsWidth : 1 280 pixelsHeight : 720 pixelsDisplay aspect ratio : 16:9Frame rate mode : ConstantFrame rate : 25.000 fpsColor space : YUVChroma subsampling : 4:2:0Bit depth : 8 bitsScan type : ProgressiveBits/(Pixel*Frame) : 0.092Stream size : 76.0 MiB (92%)Tagged date : UTC 2014-03-07 13:11:19
AudioID : 2Format : AACFormat/Info : Advanced Audio CodecFormat profile : LCCodec ID : 40Duration : 5mn 0sBit rate mode : VariableBit rate : 192 KbpsMaximum bit rate : 202 KbpsChannel(s) : 2 channelsChannel positions : Front: L RSampling rate : 44.1 KHzCompression mode : LossyStream size : 6.87 MiB (8%)Title : IsoMedia File Produced by Google, 5-11-2011Encoded date : UTC 2014-03-07 13:11:19Tagged date : UTC 2014-03-07 13:11:19
Other forum [Profile] [PM]
Display posts from previous:    
Reply to topic

The time now is: Today 11:09

All times are GMT + 3 Hours



You cannot post new topics in this forum
You cannot reply to topics in this forum
You cannot edit your posts in this forum
You cannot delete your posts in this forum
You cannot vote in polls in this forum
You cannot attach files in this forum
You cannot download files in this forum