Today is a free download without charge Download

Мой чужой ребенок (Андрей Красавин) [2016, Россия, мелодрама, HDTV 1080i]

Reply to topic
 
Author
Message

Omen ®

Longevity: 8 years 10 months

Posts: 181086

Торрент-статистика

Post 09-Jun-2016 21:03

[Quote]

Мой чужой ребенок- -Страна: Россия
Жанр: мелодрама
Год выпуска: 2016
Производство: «OOO "Тесей Продакшн"»
Продолжительность: 01:30:25
Оригинальная аудиодорожка: русский
Cубтитры: нет-Режиссер: Андрей Красавин-В ролях:
Любовь Баханкова, Михаил Пшеничный, Зоя Антонова, Марта Голубева, Виталий Новиков-Описание:
Даша работает няней в состоятельной семье и учится: хочет стать детским психологом. Мама ее растила одна. Сама она тоже обожглась. Решила, что «все мужчины такие» и хватит ждать «принца на белом коне», не смотря на то, что еще молода и красива. А главное в жизни — это дети. Даша поставила себе цель: чтобы ни от кого не зависеть, родить от анонимного донора. Однако, оказалось, что ее план слишком дорого стоит.-Возраст: 12+-Качество: HDTV (1080i)
Формат: TS
Видео кодек: AVC
Аудио кодек: MPEG Audio

Видео: AVC, 1920 х 1080 (16:9), 25,000 кадр/сек, 7 869 Кбит/сек, 0.152 bit/pixel
Аудио: MPEG Audio 2, 48000 Hz, 192 Kbps, 2 канала
-

MediaInfo

General
ID : 1 (0x1)
Complete name : D:\Раздачи\Мой чужой ребенок HDTV (1080i)\Мой чужой ребенок HDTV (1080i).ts
Format : MPEG-TS
File size : 5.36 GiB
Duration : 1h 30mn
Overall bit rate mode : Variable
Overall bit rate : 8 482 Kbps
Video
ID : 2911 (0xB5F)
Menu ID : 1119 (0x45F)
Format : AVC
Format/Info : Advanced Video Codec
Format profile : [email protected]
Format settings, CABAC : Yes
Format settings, ReFrames : 4 frames
Codec ID : 27
Duration : 1h 30mn
Bit rate : 7 869 Kbps
Width : 1 920 pixels
Height : 1 080 pixels
Display aspect ratio : 16:9
Frame rate : 25.000 fps
Color space : YUV
Chroma subsampling : 4:2:0
Bit depth : 8 bits
Scan type : MBAFF
Scan type, store method : Interleaved fields
Scan order : Top Field First
Bits/(Pixel*Frame) : 0.152
Stream size : 4.97 GiB (93%)
Audio
ID : 2912 (0xB60)
Menu ID : 1119 (0x45F)
Format : MPEG Audio
Format version : Version 1
Format profile : Layer 2
Codec ID : 3
Duration : 1h 30mn
Bit rate mode : Constant
Bit rate : 192 Kbps
Channel(s) : 2 channels
Sampling rate : 48.0 KHz
Compression mode : Lossy
Stream size : 124 MiB (2%)
Language : Russian

Скриншоты

-Раздаю до первых 5-ти скачавших, на раздачи не возвращаюсь...-
Other forum [Profile] [PM]
Display posts from previous:    
Reply to topic

The time now is: Today 13:02

All times are GMT + 3 Hours



You cannot post new topics in this forum
You cannot reply to topics in this forum
You cannot edit your posts in this forum
You cannot delete your posts in this forum
You cannot vote in polls in this forum
You cannot attach files in this forum
You cannot download files in this forum