Today is a free download without charge Download

С осенью в сердце (Георгий Параджанов) [2015, Россия, Армения, фэнтези, HDTV 1080i]

Reply to topic
 
Author
Message

Omen ®

Longevity: 8 years 10 months

Posts: 181086

Торрент-статистика

Post 09-Jun-2016 21:03

[Quote]

С осенью в сердце- -Страна: Россия, Армения
Жанр: фэнтези
Год выпуска: 2015
Производство: «Кинокомпания «Центр Юпитер ФМ»»
Продолжительность: 01:14:20
Оригинальная аудиодорожка: русский
Cубтитры: нет-Режиссер: Георгий Параджанов-В ролях:
Нодар Джанелидзе, Анастасия Фурса, Елена Антипова, Михаил Богдасаров, Анастасия Асеева, Валерий Магдьяш,
Лали Бадурашвили, Андрей Нагорнов, Юрий Нифонтов, Олег Жданов, Мария Бердинских, Филарета Архангельская-Описание:
Сценарий создан по мотивам лирических новелл Леонида Енгибарова. Их сюжеты, сплетенные из реальных и воображаемых событий, соединены воедино главным героем — грустным клоуном и поэтом, не вписывающийся в окружающую действительность. Своеобразный коллаж из 14-ти мининовелл - кинозарисовок, сценок или интермедий, построенный на основе текстов Енгибарова, раскрывает хрупкий внутренний мир его лирического героя, романтика и рыцаря, но, в то же время, простака, далекого от житейских забот и витающего в облаках. Он разговаривает деревьями, убегает во сне от кошмарной девочки, встречает фонтанщика, подстригающего струи воды у фонтанов и сказочника, рисующего цветные сказки. Он же и вратарь, спасающий цветущую футбольную штангу, и маленький мальчик, плачущий вместе с ночным дождем.-Возраст: 12+-Качество: HDTV (1080i)
Формат: TS
Видео кодек: AVC
Аудио кодек: MPEG Audio

Видео: AVC, 1920 х 1080 (16:9), 25,000 кадр/сек, 10 200 Кбит/сек, 0.198 bit/pixel
Аудио: MPEG Audio 2, 48000 Hz, 192 Kbps, 2 канала
-

MediaInfo

General
ID : 1 (0x1)
Complete name : D:\Раздачи\С осенью в сердце HDTV (1080i)\С осенью в сердце HDTV (1080i).ts
Format : MPEG-TS
File size : 5.70 GiB
Duration : 1h 14mn
Overall bit rate mode : Variable
Overall bit rate : 11.0 Mbps
Video
ID : 67 (0x43)
Menu ID : 1 (0x1)
Format : AVC
Format/Info : Advanced Video Codec
Format profile : [email protected]
Format settings, CABAC : Yes
Format settings, ReFrames : 3 frames
Format settings, GOP : M=4, N=32
Codec ID : 27
Duration : 1h 14mn
Bit rate : 10.2 Mbps
Width : 1 920 pixels
Height : 1 080 pixels
Display aspect ratio : 16:9
Frame rate : 25.000 fps
Standard : Component
Color space : YUV
Chroma subsampling : 4:2:0
Bit depth : 8 bits
Scan type : Interlaced
Scan type, store method : Separated fields
Scan order : Top Field First
Bits/(Pixel*Frame) : 0.198
Stream size : 5.32 GiB (93%)
Color range : Limited
Color primaries : BT.709
Transfer characteristics : BT.709
Matrix coefficients : BT.709
Audio
ID : 68 (0x44)
Menu ID : 1 (0x1)
Format : MPEG Audio
Format version : Version 1
Format profile : Layer 2
Codec ID : 3
Duration : 1h 14mn
Bit rate mode : Constant
Bit rate : 192 Kbps
Channel(s) : 2 channels
Sampling rate : 48.0 KHz
Compression mode : Lossy
Delay relative to video : -120ms
Stream size : 102 MiB (2%)
Language : Russian

Скриншоты

-Раздаю до первых 5-ти скачавших, на раздачи не возвращаюсь...-
Other forum [Profile] [PM]
Display posts from previous:    
Reply to topic

The time now is: Today 13:05

All times are GMT + 3 Hours



You cannot post new topics in this forum
You cannot reply to topics in this forum
You cannot edit your posts in this forum
You cannot delete your posts in this forum
You cannot vote in polls in this forum
You cannot attach files in this forum
You cannot download files in this forum