Today is a free download without charge Download

Хозяйка "Белых ночей" (Ольга Музалева) [2011, Россия, мелодрама, комедия, HDTV 1080i]

Reply to topic
 
Author
Message

Omen ®

Longevity: 8 years 10 months

Posts: 181086

Торрент-статистика

Post 09-Jun-2016 12:00

[Quote]

Хозяйка "Белых ночей"- -Страна: Россия
Жанр: мелодрама, комедия
Год выпуска: 2011
Производство: «Кинокомпания «Р Медиа»»
Продолжительность: 01:37:00
Оригинальная аудиодорожка: русский
Cубтитры: нет-Режиссер: Ольга Музалева-В ролях:
Анастасия Заворотнюк, Александр Арсентьев, Андрей Сергеев, Александр Назаров, Евгений Березовский,
Алексей Дубровский, Юлия Ковалевская, Юлия Куварзина, Наталья Рыжих, Инна Сопина, Игорь Лысов-Описание:
Красавица Марина — однажды «обжегшись» в делах сердечных, дает себе слово, что никогда не выйдет замуж. А мужчин будет… только «использовать». У нее — частная гостиница в самом центре Санкт-Петербурга. Своей исключительной красотой Марина привлекает в гостиницу множество воздыхателей, не давая при этом ни одному из них ни малейшей надежды на взаимность. Но однажды в ее гостинице останавливается Константин Соломатин, морской офицер, капитан первого ранга, и… закоренелый женоненавистник. Он не только не испытывает к нашей героине любовных чувств, но и умудряется в порыве гнева — оскорбить ее, намекнув, что она ведет жизнь содержанки. Уязвленная Марина решает отомстить капитану: во что бы то ни стало влюбить его в себя, а потом заставить страдать от неразделенной любви…-Возраст: 16+-Качество: HDTV (1080i)
Формат: TS
Видео кодек: AVC
Аудио кодек: MPEG Audio

Видео: AVC, 1920 х 1080 (16:9), 25,000 кадр/сек, 7 550 Кбит/сек, 0.146 bit/pixel
Аудио: MPEG Audio 2, 48000 Hz, 192 Kbps, 2 канала
-

MediaInfo

General
ID : 1 (0x1)
Complete name : D:\Раздачи\Хозяйка Белых ночей HDTV (1080i)\Хозяйка Белых ночей HDTV (1080i).ts
Format : MPEG-TS
File size : 5.43 GiB
Duration : 1h 37mn
Overall bit rate mode : Variable
Overall bit rate : 7 970 Kbps
Video
ID : 256 (0x100)
Menu ID : 1234 (0x4D2)
Format : AVC
Format/Info : Advanced Video Codec
Format profile : High@L4.1
Format settings, CABAC : Yes
Format settings, ReFrames : 3 frames
Codec ID : 27
Duration : 1h 37mn
Bit rate mode : Constant
Bit rate : 7 550 Kbps
Width : 1 920 pixels
Height : 1 080 pixels
Display aspect ratio : 16:9
Frame rate : 25.000 fps
Standard : PAL
Color space : YUV
Chroma subsampling : 4:2:0
Bit depth : 8 bits
Scan type : Progressive
Bits/(Pixel*Frame) : 0.146
Stream size : 5.03 GiB (93%)
Color range : Limited
Color primaries : BT.709
Transfer characteristics : BT.709
Matrix coefficients : BT.709
Audio
ID : 68 (0x44)
Menu ID : 1234 (0x4D2)
Format : MPEG Audio
Format version : Version 1
Format profile : Layer 2
Codec ID : 3
Duration : 1h 37mn
Bit rate mode : Constant
Bit rate : 192 Kbps
Channel(s) : 2 channels
Sampling rate : 48.0 KHz
Compression mode : Lossy
Stream size : 134 MiB (2%)
Language : Russian

Скриншоты

-Раздаю до первых 5-ти скачавших, на раздачи не возвращаюсь...-
Other forum [Profile] [PM]
Display posts from previous:    
Reply to topic

The time now is: Today 13:41

All times are GMT + 3 Hours



You cannot post new topics in this forum
You cannot reply to topics in this forum
You cannot edit your posts in this forum
You cannot delete your posts in this forum
You cannot vote in polls in this forum
You cannot attach files in this forum
You cannot download files in this forum