Today is a free download without charge Download

Экипаж (Александр Митта) [1979, СССР, фильм-катастрофа, мелодрама, WEBRip 720p]

Reply to topic
 
Author
Message

Omen ®

Longevity: 8 years 10 months

Posts: 181086

Торрент-статистика

Post 07-Jun-2016 15:33

[Quote]

Экипаж
Страна: СССР
Жанр: фильм-катастрофа, мелодрама
Год выпуска: 1979
Продолжительность: 02:15:35
Перевод: Не требуется
Cубтитры: нет
Оригинальная аудиодорожка: русский
Режиссёр: Александр Митта
В ролях: Георгий Жжёнов, Анатолий Васильев, Леонид Филатов, Александра Яковлева, Ирина Акулова, Екатерина Васильева, Юрий Горобец, Александр Павлов, Галина Гладкова, Рома Монин (озвучание - Клара Румянова), Комаки Курихара, Елена Коренева, Владимир Иванов, Алексей Якубов, Антон Табаков, Ирина Савина, Лариса Барабанова, Владимир Маренков, Александр Пашутин, Александр Потапов, Клара Румянова, Иван Рыжов, Ирина Санпитер, Мария Скворцова, Леонид Чубаров, Герман Юшко
Описание: СССР, конец 1970-х годов. Герои фильма — экипаж пассажирского самолёта "Ту-154", совершающий международные рейсы. Игорь Скворцов — бортинженер, меняет любовниц одну за другой. Последней в его донжуанском списке становится стюардесса Тамара - внучка старого друга командира экипажа, Андрея Васильевича Тимченко. Бывший член экипажа Валентин Ненароков, перешедший из большой авиации в малую, страдает от непрерывных скандалов, которые ему закатывает жена Алевтина. У самого Тимченко в семье тоже проблемы: дочь забеременела, но выходить замуж за отца ребёнка отказывается. После очередной ежегодной медкомиссии Тимченко узнаёт, что, вполне вероятно, его вскоре отстранят от полётов по состоянию здоровья. А тут еще экипажу предстоит сложный рейс за границу, в город нефтяников Бидри, где случилось землетрясение большой разрушительной силы...
Сэмпл: https://www.sendspace.com/file/nwfyuv
Тип релиза: WEBRip 720p (Источник неизвестен)
Контейнер: MKV
Видео: MPEG-4 AVC/H.264 / 3186 kbps / 994x720 / 25.000 fps
Аудио: AC3 / 6 ch / 448 kbps / 48 kHz
Аудио 2: AC3 / 1 ch / 224 kbps / 48 kHz

MediaInfo

General
Unique ID : 243884327873837177982528241970680469779 (0xB77A69BA7E0C141588BE41CB5D149913)
Complete name : J:\Torrents\Экипаж_1979-WEBRip 720p (1)-002.mkv
Format : Matroska
Format version : Version 2
File size : 27.0 MiB
Duration : 57s 608ms
Overall bit rate : 3 936 Kbps
Encoded date : UTC 2016-06-07 12:17:20
Writing application : mkvmerge v5.5.0 ('Healer') built on Apr 24 2012 23:47:03
Writing library : libebml v1.2.3 + libmatroska v1.3.0
Video
ID : 1
Format : AVC
Format/Info : Advanced Video Codec
Format profile : [email protected]
Format settings, CABAC : Yes
Format settings, ReFrames : 11 frames
Muxing mode : Header stripping
Codec ID : V_MPEG4/ISO/AVC
Duration : 57s 600ms
Bit rate : 3 186 Kbps
Width : 994 pixels
Height : 720 pixels
Display aspect ratio : 1.381
Frame rate mode : Constant
Frame rate : 25.000 fps
Color space : YUV
Chroma subsampling : 4:2:0
Bit depth : 8 bits
Scan type : Progressive
Bits/(Pixel*Frame) : 0.178
Stream size : 21.9 MiB (81%)
Language : English
Default : Yes
Forced : No
Color range : Limited
Color primaries : BT.709
Transfer characteristics : BT.709
Matrix coefficients : BT.709
Audio #1
ID : 2
Format : AC-3
Format/Info : Audio Coding 3
Mode extension : CM (complete main)
Format settings, Endianness : Big
Muxing mode : Header stripping
Codec ID : A_AC3
Duration : 57s 608ms
Bit rate mode : Constant
Bit rate : 448 Kbps
Channel(s) : 6 channels
Channel positions : Front: L C R, Side: L R, LFE
Sampling rate : 48.0 KHz
Frame rate : 31.250 fps (1536 spf)
Compression mode : Lossy
Delay relative to video : 8ms
Stream size : 3.08 MiB (11%)
Language : Russian
Default : Yes
Forced : No
Audio #2
ID : 3
Format : AC-3
Format/Info : Audio Coding 3
Mode extension : CM (complete main)
Format settings, Endianness : Big
Muxing mode : Header stripping
Codec ID : A_AC3
Duration : 57s 608ms
Bit rate mode : Constant
Bit rate : 224 Kbps
Channel(s) : 1 channel
Channel positions : Front: C
Sampling rate : 48.0 KHz
Frame rate : 31.250 fps (1536 spf)
Compression mode : Lossy
Delay relative to video : 8ms
Stream size : 1.54 MiB (6%)
Language : Russian
Default : No
Forced : No

Скриншоты

Other forum [Profile] [PM]

uschakov.yura

Gender:

Longevity: 9 years 4 months

Posts: 400

Location: Рыбинск Ярославской области

Торрент-статистика

Post 07-Jun-2016 15:41 (after 8 minutes)

[Quote]

Omen, Экипаж (Александр Митта) [1979, СССР, фильм-катастрофа, мелодрама, WEBRip 720p] - это конечно же Зарубежное кино?

_________________
uschakov.yura
Other forum [Profile] [PM]

Jorg

Gender:

Longevity: 9 years

Posts: 3

Торрент-статистика

Post 07-Jun-2016 16:59 (after 1 hour 18 minutes)

[Quote]

Конечно это опечатка.
Фильм наш, советский. и на мой взгляд лучше, чем "Экипаж" 2016 года.
Other forum [Profile] [PM]

uschakov.yura

Gender:

Longevity: 9 years 4 months

Posts: 400

Location: Рыбинск Ярославской области

Торрент-статистика

Post 07-Jun-2016 17:17 (after 18 minutes)

[Quote]

Jorg, на мой взгляд фильм прекрасный

_________________
uschakov.yura
Other forum [Profile] [PM]
Display posts from previous:    
Reply to topic

The time now is: Today 21:52

All times are GMT + 3 Hours



You cannot post new topics in this forum
You cannot reply to topics in this forum
You cannot edit your posts in this forum
You cannot delete your posts in this forum
You cannot vote in polls in this forum
You cannot attach files in this forum
You cannot download files in this forum