Today is a free download without charge Download

Морской бой / Battleship (2012) [1080p] BDRemux

Reply to topic
 
Author
Message

Varius ®

Gender:

Longevity: 11 years

Posts: 2428

Location: Hell

Торрент-статистика

Post 21-Aug-2012 09:09

[Quote]

Морской бой / Battleship (2012) BDRemux- Русское название: Морской бой
Оригинальное название: Battleship
Год выпуска: 2012
Жанр: Фантастика, Боевик, Триллер
Описание фильма:
Мы посылаем сигналы в космос и ждем ответа. Но уверены ли мы, что хотим его получить? Что если пришельцы потенциально опасны? В 2009 году на конференции в Вашингтоне астронавт Эдгар Митчелл, побывавший на Луне, сделал сенсационное заявление о существовании внеземной жизни. Теперь мы знаем, контакт не просто возможен, он неизбежен!
Режиссер: Питер Берг
Актеры: Лиам Нисон, Тейлор Китч, Александр Скарсгард, Бруклин Декер, Рианна, Джесси Племонс, Джон Белл, Питер МакНикол, Таданобу Асано, Джошуа Пенс
Продолжительность: 02:11:15
Перевод: Дублированный
Субтитры: Русские (full, forced), Английские

Дата мировой премьеры: 03.04.2012
Дата российской премьеры: 19.04.2012
Дата выхода DVD релиза: 13.10.2012
Видеокодек: MPEG-4 AVC/H.264
Битрейт видео: ~22.3 Mb/s
Размер кадра: 1920 x 1080
Качество видео: BDRemux
Аудиокодек: DTS, DTS-HD MA
Аудио:
Аудио 1: Русский, DTS, 768 kbps, 6 каналов, 24 bit, (L, C, R, l, r) + LFE
Аудио 2: Английский, DTS-HD MA, 5.1, 48 kHz, 4172 kbps, 24 bit, 6 каналов, (DTS Core: 5.1, 48 kHz, 1509 kbps, 24 bit, 6 каналов) - (L, C, R, l, r) + LFE
Сэмпл: Ссылка

MediaInfo

Общее
Уникальный идентификатор : 244695635470622349673824125962684225740 (0xB816AA480409C2F5916F57DFC3FC58CC)
Полное имя :Battleship.2012.1080p.BDRemux.mkv
Формат : Matroska
Версия формата : Version 2
Размер файла : 23,0 Гбайт
Продолжительность : 2 ч. 11 м.
Режим общего битрейта : Переменный
Общий поток : 25,1 Мбит/сек
Дата кодирования : UTC 2012-08-20 09:54:46
Программа кодирования : mkvmerge v5.7.0 ('The Whirlwind') built on Jul 8 2012 20:08:51
Библиотека кодирования : libebml v1.2.3 + libmatroska v1.3.0
Видео
Идентификатор : 1
Формат : AVC
Формат/Информация : Advanced Video Codec
Профиль формата : [url=mailto:[email protected]][email protected][/url]
Параметр CABAC формата : Да
Параметр ReFrames формата : 4 кадра
Параметр GOP формата : M=3, N=12
Идентификатор кодека : V_MPEG4/ISO/AVC
Продолжительность : 2 ч. 11 м.
Вид битрейта : Переменный
Битрейт : 22,3 Мбит/сек
Максимальный битрейт : 33,0 Мбит/сек
Ширина : 1920 пикселей
Высота : 1080 пикселей
Соотношение сторон : 16:9
Частота кадров : 23,976 кадра/сек
Цветовое пространство : YUV
Субдискретизация насыщенности : 4:2:0
Битовая глубина : 8 бит
Тип развёртки : Прогрессивная
Бит/(Пиксели*Кадры) : 0.448
Размер потока : 20,4 Гбайт (89%)
Язык : English
Default : Нет
Forced : Нет
Аудио #1
Идентификатор : 2
Формат : DTS
Формат/Информация : Digital Theater Systems
Идентификатор кодека : A_DTS
Продолжительность : 2 ч. 11 м.
Вид битрейта : Постоянный
Битрейт : 755 Кбит/сек
Каналы : 6 каналов
Расположение каналов : Front: L C R, Side: L R, LFE
Частота : 48,0 КГц
Битовая глубина : 24 бит
Метод сжатия : С потерями
Размер потока : 708 Мбайт (3%)
Язык : Russian
Default : Да
Forced : Нет
Аудио #2
Идентификатор : 3
Формат : DTS
Формат/Информация : Digital Theater Systems
Профиль формата : MA / Core
Идентификатор кодека : A_DTS
Продолжительность : 2 ч. 11 м.
Вид битрейта : Переменный
Битрейт : 1576 Кбит/сек / 1510 Кбит/сек
Каналы : 6 каналов
Расположение каналов : Front: L C R, Side: L R, LFE
Частота : 48,0 КГц
Битовая глубина : 24 бит
Метод сжатия : Без потерь / Lossy
Язык : English
Default : Нет
Forced : Нет
Текст #1
Идентификатор : 4
Формат : UTF-8
Идентификатор кодека : S_TEXT/UTF8
Идентификатор кодека/Информация : UTF-8 Plain Text
Язык : Russian
Default : Нет
Forced : Нет
Текст #2
Идентификатор : 5
Формат : UTF-8
Идентификатор кодека : S_TEXT/UTF8
Идентификатор кодека/Информация : UTF-8 Plain Text
Язык : Russian
Default : Нет
Forced : Нет
Текст #3
Идентификатор : 6
Формат : UTF-8
Идентификатор кодека : S_TEXT/UTF8
Идентификатор кодека/Информация : UTF-8 Plain Text
Язык : English
Default : Нет
Forced : Нет
Меню
00:00:00.000 : en:00:00:00.000
00:09:24.105 : en:00:09:24.105
00:15:04.320 : en:00:15:04.320
00:23:08.679 : en:00:23:08.679
00:29:44.032 : en:00:29:44.032
00:36:26.810 : en:00:36:26.810
00:42:01.269 : en:00:42:01.269
00:49:09.655 : en:00:49:09.655
00:56:08.323 : en:00:56:08.323
01:00:02.224 : en:01:00:02.224
01:09:50.520 : en:01:09:50.520
01:15:26.731 : en:01:15:26.731
01:20:56.935 : en:01:20:56.935
01:29:47.424 : en:01:29:47.424
01:37:14.412 : en:01:37:14.412
01:43:32.248 : en:01:43:32.248
01:49:38.572 : en:01:49:38.572
01:56:20.682 : en:01:56:20.682
02:00:41.359 : en:02:00:41.359
02:09:33.975 : en:02:09:33.975
Скриншоты:

Время раздачи: 24/7

_________________

Создавая "Новую папку", не считайте себя Создателем - это право Вам дано Админом


Other forum [Profile] [PM]
Display posts from previous:    
Reply to topic

The time now is: Today 05:06

All times are GMT + 3 Hours



You cannot post new topics in this forum
You cannot reply to topics in this forum
You cannot edit your posts in this forum
You cannot delete your posts in this forum
You cannot vote in polls in this forum
You cannot attach files in this forum
You cannot download files in this forum