Today is a free download without charge Download

Охрана (Александр Прошкин) [2015, Россия, драма, комедия, WEB-DL (720p)]

Reply to topic
 
Author
Message

Omen ®

Longevity: 8 years 10 months

Posts: 181086

Торрент-статистика

Post 01-Jun-2016 00:00

[Quote]

Охрана- -Страна: Россия
Жанр: драма, комедия
Год выпуска: 2015
Производство: «"Амкарт"»
Продолжительность: 01:51:11
Оригинальная аудиодорожка: русский
Cубтитры: нет-Режиссер: Александр Прошкин-В ролях:
Мария Коровина, Виктор Сухоруков, Антон Шагин, Алексей Кортнев, Ирина Вилкова,
Сергей Дрейден, Илья Ждаников, Елена Галибина, Ольга Лапшина, Никита Кукушкин-Описание:
Ей 26 лет. Рыжеволосая Клавдия работает в охране разоряющегося металлургического завода. Ее семья — отчим-инвалид.
О любви и замужестве уже и не мечтает, но страстно хочет ребенка.
Ироничная, местами очень смешная и трогательная история о вспыхнувшем чувстве и превратностях судьбы.-Возраст: 16+-Качество: WEB-DL (720p)
Формат: MKV
Видео кодек: AVC
Аудио кодек: AC3

Видео: AVC, 960 х 536 (16:9), 25,000 кадр/сек, 3 812 Кбит/сек, 0.296 bit/pixel
Аудио: AC3, 48000 Hz, 192 Kbps, 2 канала
-

MediaInfo

General
Unique ID : 202614370666441897885372838415353282177 (0x986E1BBDACE99C7B90C670ED5E147E81)
Complete name : D:\Раздачи\Охрана WEB-DL (720p)\Охрана WEB-DL (720p).mkv
Format : Matroska
Format version : Version 4 / Version 2
File size : 3.17 GiB
Duration : 1h 51mn
Overall bit rate : 4 085 Kbps
Encoded date : UTC 2016-05-30 15:21:56
Writing application : mkvmerge v6.8.0 ('Theme for Great Cities') 64bit built on Mar 2 2014 21:34:26
Writing library : libebml v1.3.0 + libmatroska v1.4.1
Video
ID : 1
Format : AVC
Format/Info : Advanced Video Codec
Format profile : [email protected]
Format settings, CABAC : No
Format settings, ReFrames : 2 frames
Codec ID : V_MPEG4/ISO/AVC
Duration : 1h 51mn
Bit rate : 3 812 Kbps
Width : 960 pixels
Height : 536 pixels
Display aspect ratio : 2.40:1
Frame rate mode : Constant
Frame rate : 25.000 fps
Color space : YUV
Chroma subsampling : 4:2:0
Bit depth : 8 bits
Scan type : Progressive
Bits/(Pixel*Frame) : 0.296
Stream size : 2.96 GiB (93%)
Language : English
Default : Yes
Forced : No
Color range : Limited
Color primaries : BT.709
Transfer characteristics : BT.709
Matrix coefficients : BT.709
Audio
ID : 2
Format : AC-3
Format/Info : Audio Coding 3
Mode extension : CM (complete main)
Format settings, Endianness : Big
Codec ID : A_AC3
Duration : 1h 51mn
Bit rate mode : Constant
Bit rate : 192 Kbps
Channel(s) : 2 channels
Channel positions : Front: L R
Sampling rate : 48.0 KHz
Frame rate : 31.250 fps (1536 spf)
Compression mode : Lossy
Stream size : 153 MiB (5%)
Language : Russian
Default : Yes
Forced : Yes
Menu
00:00:00.000 : en:Глава 1
00:05:49.680 : en:Глава 2
00:13:53.520 : en:Глава 3
00:17:55.360 : en:Глава 4
00:25:00.400 : en:Глава 5
00:31:33.560 : en:Глава 6
00:36:04.720 : en:Глава 7
00:42:02.480 : en:Глава 8
00:49:18.040 : en:Глава 9
00:57:28.480 : en:Глава 10
01:03:46.200 : en:Глава 11
01:10:11.960 : en:Глава 12
01:15:41.200 : en:Глава 13
01:21:04.120 : en:Глава 14
01:25:35.920 : en:Глава 15
01:30:48.480 : en:Глава 16
01:34:44.160 : en:Глава 17
01:40:44.080 : en:Глава 18

Скриншоты

-Раздаю до первых 5-ти скачавших, на раздачи не возвращаюсь...-
Other forum [Profile] [PM]
Display posts from previous:    
Reply to topic

The time now is: Today 23:24

All times are GMT + 3 Hours



You cannot post new topics in this forum
You cannot reply to topics in this forum
You cannot edit your posts in this forum
You cannot delete your posts in this forum
You cannot vote in polls in this forum
You cannot attach files in this forum
You cannot download files in this forum