Today is a free download without charge Download

Новые приключения кота Леопольда / Серии: 1-13 из 13 (Анатолий Резников) [2016, Мультфильм, BDRip]

Reply to topic
 
Author
Message

Omen ®

Longevity: 7 years 11 months

Posts: 181087

Торрент-статистика

Post 29-May-2016 21:00

[Quote]

Новые приключения кота Леопольда
«Ребята, давайте жить дружно»- Год выпуска: 2016
Выпущено: Россия / Русское мобильное телевидение
Жанр: мультфильм
Продолжительность: 13 x ~ 00:13:00
Перевод: Не требуется |Лицензия|
Субтитры: нет-Режиссёр:
Анатолий Резников-Роли озвучивал:
Александр Калягин-Описание:
Продолжение историй об интеллигентном коте, который всегда приветлив и всегда носит галстук-бабочку. Двое мышат, Серый и Белый, постоянно доставляют Леопольду уйму неприятностей. Но что бы они ни придумывали, все их попытки заканчиваются неудачами. И даже в самые трудные моменты, когда, казалось бы, от мышей нет спасения, кот Леопольд не устает повторять девиз всей своей жизни: «Ребята, давайте жить дружно!».-Релиз групп | КиноПоиск | Сэмпл |-Качество: BDRip [Blu-ray Disc | 1080i | HDCLUB]
Формат: AVI
Видео: ~ 704x400 (1.76:1), 25 fps, XviD build 67 ~2200 kbps avg, 0.32 bit/pixel
Аудио: 48 kHz, AC3 Dolby Digital, 2/0 (L,R) ch, ~224 kbps avg-

Скриншоты

-

Список серий

1. Бурный поток
2. На рыбалке у реки
3. Под жарким солнцем
4. Вперед за колбасой и сыром
5. Парк развлечений
6. Лавина с гор
7. Сплошные неприятности
8. Все кувырком
9. Кулинарный рецепт
10. Птицы
11. Ремонт в тылу врага
12. Такси вызывали?
13. Новогодняя елка

MediaInfo

Код:
General
Complete name                            : D:\09_Kulinarnyi_recept.avi
Format                                   : AVI
Format/Info                              : Audio Video Interleave
File size                                : 269 MiB
Duration                                 : 15mn 0s
Overall bit rate                         : 2 508 Kbps
Writing application                      : VirtualDubMod 1.5.10.3 | www.virtualdub-fr.org || (build 2550/release)
Writing library                          : VirtualDubMod build 2550/release
Video
ID                                       : 0
Format                                   : MPEG-4 Visual
Format profile                           : Advanced [email protected]
Format settings, BVOP                    : 2
Format settings, QPel                    : No
Format settings, GMC                     : No warppoints
Format settings, Matrix                  : Custom
Codec ID                                 : XVID
Codec ID/Hint                            : XviD
Duration                                 : 15mn 0s
Bit rate                                 : 2 274 Kbps
Width                                    : 704 pixels
Height                                   : 400 pixels
Display aspect ratio                     : 16:9
Frame rate                               : 25.000 fps
Color space                              : YUV
Chroma subsampling                       : 4:2:0
Bit depth                                : 8 bits
Scan type                                : Progressive
Compression mode                         : Lossy
Bits/(Pixel*Frame)                       : 0.323
Stream size                              : 244 MiB (91%)
Writing library                          : XviD 67
Audio
ID                                       : 1
Format                                   : AC-3
Format/Info                              : Audio Coding 3
Mode extension                           : CM (complete main)
Format settings, Endianness              : Big
Codec ID                                 : 2000
Duration                                 : 15mn 0s
Bit rate mode                            : Constant
Bit rate                                 : 224 Kbps
Channel(s)                               : 2 channels
Channel positions                        : Front: L R
Sampling rate                            : 48.0 KHz
Frame rate                               : 31.250 fps (1536 spf)
Compression mode                         : Lossy
Stream size                              : 24.0 MiB (9%)
Alignment                                : Split accross interleaves
Interleave, duration                     : 40 ms (1.00 video frame)
Interleave, preload duration             : 500 ms
[/spoiler]
-
Other forum [Profile] [PM]
Display posts from previous:    
Reply to topic

The time now is: Today 08:04

All times are GMT + 3 Hours



You cannot post new topics in this forum
You cannot reply to topics in this forum
You cannot edit your posts in this forum
You cannot delete your posts in this forum
You cannot vote in polls in this forum
You cannot attach files in this forum
You cannot download files in this forum