Today is a free download without charge Download

Грибы (Расширенная Версия) / Shrooms (Extended Cut) [Paddy Breathnach / Пэдди Бретнэк](2007, Ужасы, Триллер) HDRip

Reply to topic
 
Author
Message

KirovSOFT ®

Gender:

Longevity: 9 years 2 months

Posts: 998

Location: Кировская область -Оричи

Торрент-статистика

Post 20-Aug-2012 10:36

[Quote]

Грибы (Расширенная Версия) / Shrooms (Extended Cut) (2007) HDRip
«Get Ready to Get Wasted»
-
Русское название: Грибы (Расширенная Версия)
Оригинальное название: Shrooms (Extended Cut)
Год выпуска: 2007
Жанр: Ужасы, Триллер
Перевод: Дублированный
Субтитры: нет
Описание фильма:
Компания американских подростков в восторге от предложения их ирландского друга Джейка! Он зовёт ребят совершить увлекательное путешествие по Ирландии, которое запомнится им на всю жизнь. Поглощённые этой идеей, юные путешественники — прелестная Тара, мужественный Блуто, заядлая туристка Лайза и хиппи Трой со своей подружкой Холли — отправляются в Ирландию, навстречу приключениям.
Прибыв на место, молодые люди разбивают лагерь, а Джейк, взявший на себя роль проводника, рассказывает своим друзьям об особенностях ирландской природы. В числе прочего Джейк упоминает о том, что в данной местности растут грибы, которые ни в коем случае нельзя употреблять в пищу. Человек, съевший такой гриб, либо умирает, либо приобретает сверхъестественные способности, которые позволяют ему разговаривать с мёртвыми и предвидеть будущее.
Однако Джейк опоздал с предупреждением: Тара уже успела отведать смертельно опасный гриб. Девушке повезло — ей удалось выжить, но с этого момента несчастную начинают мучить видения ужасной смерти Блуто, о которых она не решается поведать друзьям...
Режиссер: Пэдди Бретнэк
Актеры: Линдси Хоун, Джек Хьюстон, Макс Кэш, Майя Хазен, Элис Гречин, Роберт Хоффман, Дон Вичерли, Шон МакГинли, Тоби Седжвик
Продолжительность: 01:27:35
   
Дата мировой премьеры: 10 февраля 2007
Дата российской премьеры: 16 августа 2007, «Lizard Cinema»
Дата выхода Blu-Ray релиза: 28 июня 2011, «Lizard Cinema Trade»
Видеокодек: Xvid
Битрейт видео: ~1 051 Kbps
Размер кадра: 720x304
Качество видео: HDRip
Аудиокодек: MP3 2.0
Битрейт аудио: 128 kbps

MediaInfo:

General
Format : AVI
Format/Info : Audio Video Interleave
File size : 744 MiB
Duration : 1h 27mn
Overall bit rate : 1 188 Kbps
Writing application : VirtualDubMod 1.5.10.2 (build 2540/release)
Writing library : VirtualDubMod build 2540/release
Video
ID : 0
Format : MPEG-4 Visual
Format profile : Advanced [email protected]
Format settings, BVOP : 1
Format settings, QPel : No
Format settings, GMC : No warppoints
Format settings, Matrix : Custom
Codec ID : XVID
Codec ID/Hint : XviD
Duration : 1h 27mn
Bit rate : 1 051 Kbps
Width : 720 pixels
Height : 304 pixels
Display aspect ratio : 2.35:1
Frame rate : 24.000 fps
Color space : YUV
Chroma subsampling : 4:2:0
Bit depth : 8 bits
Scan type : Progressive
Compression mode : Lossy
Bits/(Pixel*Frame) : 0.200
Stream size : 658 MiB (88%)
Writing library : XviD 1.2.1 (UTC 2008-12-04)
Audio
ID : 1
Format : MPEG Audio
Format version : Version 1
Format profile : Layer 3
Codec ID : 55
Codec ID/Hint : MP3
Duration : 1h 27mn
Bit rate mode : Constant
Bit rate : 128 Kbps
Channel(s) : 2 channels
Sampling rate : 48.0 KHz
Compression mode : Lossy
Stream size : 80.2 MiB (11%)
Alignment : Aligned on interleaves
Interleave, duration : 42 ms (1.00 video frame)
Interleave, preload duration : 504 ms
Writing library : LAME3.98r
Encoding settings : -m s -V 4 -q 2 -lowpass 17 -b 128

Extended Cut

Расширенная версия была получена путем врезания удаленных и расширенных сцен на свои места.
Скриншоты:
         

_________________


Last edited by KirovSOFT on 2012-08-20 10:52; edited 1 time in total
Other forum [Profile] [PM]
Display posts from previous:    
Reply to topic

The time now is: Today 00:03

All times are GMT + 3 Hours



You cannot post new topics in this forum
You cannot reply to topics in this forum
You cannot edit your posts in this forum
You cannot delete your posts in this forum
You cannot vote in polls in this forum
You cannot attach files in this forum
You cannot download files in this forum