Today is a free download without charge Download

Законопослушный гражданин / Law Abiding Citizen (Ф. Гэри Грей / F. Gary Gray) [2009 г., триллер, драма, криминал, BDRip 1080p] [Theatriacal cut]

Reply to topic
 
Author
Message

Delia ®

Gender:

Longevity: 11 years

Posts: 1821

Торрент-статистика

Post 20-Aug-2012 10:32

[Quote]

Законопослушный гражданин / Law Abiding Citizen«Как остановить убийцу, если он уже за решеткой?»--
Год выпуска: 2009
Страна: США
Жанр: триллер, драма, криминал, ...
Продолжительность: 01:48:36
Перевод: Профессиональный (дублированный)
Субтитры: Russian , English (srt)
Режиссер: Ф. Гэри Грей
Сценарий: Курт Уиммер
Продюсер: Джерард Батлер, Курт Уиммер, Лукас Фостер, ...
-
Джейми Фокс (Nick Rice), Джерард Батлер (Clyde Shelton), Колм Мини (Detective Dunnigan), Брюс МакГилл (Jonas Cantrell), Лесли Бибб (Sarah Lowell), Майкл Ирби (Detective Garza), Грегори Итцин (Warden Iger), Реджина Холл (Kelly Rice), Эмиральд Янг (Denise Rice, (в титрах: Emerald Angel Young)), Кристиан Столте (Clarence Darby), Энни Корли (Judge Laura Burch), Ричард Портноу (Bill Reynolds)
Описание: Добропорядочный житель Филадельфии Клайд Шелтон теряет семью в результате бандитского нападения. Но когда преступники оказались в руках правосудия, выяснилось, что юридической Системе удобнее пойти на сделку с одним из бандитов, чтобы дать высшую меру другому. Помощник окружного прокурора Ник Райс идет на эту сделку, вопреки протестам возмущенного Шелтона, свято верящего в безукоризненность Закона. Но его права были попраны... И тогда спустя годы безвестный мститель начинает творить собственную расправу над убийцами. Ник Райс достаточно быстро находит его. Это... Клайд Шелтон. Райсу кажется, что ему нетрудно добиться признания от раздавленного семейной трагедией Клайда. Каково же изумление всех работников Системы, когда они обнаруживают, что даже помещенный в тюрьму, этот человек способен на самую жестокую и изощренную месть. Более того, они оказались совершенно бессильны перед гениальной игрой и смертоносными ударами изолированного в одиночке Шелтона! Законопослушный гражданин начал беспощадную войну против всех них. И дело вовсе не в мести...-Рейтинг MPAA: --Релиз группы: --Качество: BDRip
Формат: MKV
Видео кодек: H.264 (AVC)
Аудио кодеk: AC3
Видео: 1920x800 (2.40:1), 23.976 fps, AVC, 9 658 Kbps
Аудио: AC3, 448 Kbps, 48.0 KHz, 6 ch (RUS)
Аудио #2: AC3, 384 Kbps, 48.0 KHz, 6 ch (ENG)

МедиаИнфо

Код:
Общее
Уникальный идентификатор                 : 227634435700908125545953797576467964367 (0xAB40CC301A97F995BF52A84CE10461CF)
Полное имя                               : E:\торрент\Law Abiding Citizen(2009) BDRip-F.HD.mkv
Формат                                   : Matroska
Версия формата                           : Version 2
Размер файла                             : 7,95 Гбайт
Продолжительность                        : 1 ч. 48 м.
Общий поток                              : 10,5 Мбит/сек
Дата кодирования                         : UTC 2012-08-20 07:41:26
Программа кодирования                    : mkvmerge v5.4.0 ('Piper') built on Mar 10 2012 13:34:39
Библиотека кодирования                   : libebml v1.2.3 + libmatroska v1.3.0
Видео
Идентификатор                            : 1
Формат                                   : AVC
Формат/Информация                        : Advanced Video Codec
Профиль формата                          : [email protected]
Параметр CABAC формата                   : Да
Параметр ReFrames формата                : 5 кадров
Идентификатор кодека                     : V_MPEG4/ISO/AVC
Продолжительность                        : 1 ч. 48 м.
Битрейт                                  : 9658 Кбит/сек
Ширина                                   : 1920 пикселей
Высота                                   : 800 пикселей
Соотношение сторон                       : 2,40:1
Режим частоты кадров                     : Постоянный
Частота кадров                           : 23,976 кадра/сек
Цветовое пространство                    : YUV
Субдискретизация насыщенности            : 4:2:0
Битовая глубина                          : 8 бит
Тип развёртки                            : Прогрессивная
Бит/(Пиксели*Кадры)                      : 0.262
Размер потока                            : 7,16 Гбайт (90%)
Библиотека кодирования                   : x264 core 125 r2208 d9d2288
Настройки программы                      : cabac=1 / ref=5 / deblock=1:-3:-3 / analyse=0x3:0x113 / me=umh / subme=10 / psy=1 / psy_rd=1.00:0.10 / mixed_ref=1 / me_range=32 / chroma_me=1 / trellis=2 / 8x8dct=1 / cqm=0 / deadzone=21,11 / fast_pskip=0 / chroma_qp_offset=1 / threads=6 / lookahead_threads=1 / sliced_threads=0 / nr=0 / decimate=1 / interlaced=0 / bluray_compat=0 / constrained_intra=0 / bframes=7 / b_pyramid=2 / b_adapt=2 / b_bias=0 / direct=3 / weightb=1 / open_gop=0 / weightp=2 / keyint=240 / keyint_min=23 / scenecut=40 / intra_refresh=0 / rc=2pass / mbtree=0 / bitrate=9658 / ratetol=1.0 / qcomp=0.80 / qpmin=10 / qpmax=51 / qpstep=4 / cplxblur=20.0 / qblur=0.5 / ip_ratio=1.40 / pb_ratio=1.30 / aq=2:0.90
Язык                                     : English
Default                                  : Да
Forced                                   : Нет
Аудио #1
Идентификатор                            : 2
Формат                                   : AC-3
Формат/Информация                        : Audio Coding 3
Расширение режима                        : CM (complete main)
Параметр Endianness формата              : Big
Идентификатор кодека                     : A_AC3
Продолжительность                        : 1 ч. 48 м.
Вид битрейта                             : Постоянный
Битрейт                                  : 448 Кбит/сек
Каналы                                   : 6 каналов
Расположение каналов                     : Front: L C R, Side: L R, LFE
Частота                                  : 48,0 КГц
Битовая глубина                          : 16 бит
Метод сжатия                             : С потерями
Размер потока                            : 348 Мбайт (4%)
Язык                                     : Russian
Default                                  : Да
Forced                                   : Нет
Аудио #2
Идентификатор                            : 3
Формат                                   : AC-3
Формат/Информация                        : Audio Coding 3
Расширение режима                        : CM (complete main)
Параметр Endianness формата              : Big
Идентификатор кодека                     : A_AC3
Продолжительность                        : 1 ч. 48 м.
Вид битрейта                             : Постоянный
Битрейт                                  : 384 Кбит/сек
Каналы                                   : 6 каналов
Расположение каналов                     : Front: L C R, Side: L R, LFE
Частота                                  : 48,0 КГц
Битовая глубина                          : 16 бит
Метод сжатия                             : С потерями
Размер потока                            : 298 Мбайт (4%)
Язык                                     : English
Default                                  : Нет
Forced                                   : Нет
Текст #1
Идентификатор                            : 4
Формат                                   : UTF-8
Идентификатор кодека                     : S_TEXT/UTF8
Идентификатор кодека/Информация          : UTF-8 Plain Text
Язык                                     : Russian
Default                                  : Нет
Forced                                   : Нет
Текст #2
Идентификатор                            : 5
Формат                                   : UTF-8
Идентификатор кодека                     : S_TEXT/UTF8
Идентификатор кодека/Информация          : UTF-8 Plain Text
Язык                                     : English
Default                                  : Нет
Forced                                   : Нет

Знаете ли Вы, что...

» Съёмки прошли в Филадельфии и её окрестностях, в том числе в нынешней городской администрации и в старой городской тюрьме Broadmeadows. Тюрьма была закрыта в 1998 году и с того времени используется главным образом в качестве складских помещений. Бывшая тюремная столовая была преобразована в современный полицейский участок с рядами столов и всей прочей обстановкой.
» Премьера фильма прошла на родине Джерарда Батлера в мультиплексе Cineworld в шотландском Глазго, который считается самым высоким кинотеатром в мире и одним из самых оживлённых во всей Великобритании.
» На одной из ранних стадий производства проекта место режиссёра картины отводилось Фрэнку Дарабонту, а одну из ролей должна была сыграть Кэтрин Зета-Джонс.
» Майкл Наттер, мэр Филадельфии, появляется в небольшом камео как человек, держащий библию, когда герой Джейми Фокса приносит присягу прокурора.
» Режиссёр фильма Ф. Гэри Грей появляется в камео полицейского детектива, который протягивает детективу Гарце пакет с доказательствами.
» Изначально планировалось что роль Шелтона сыграет Джейми Фокс, а роль Райса — Джерард Батлер. Но затем Батлеру захотелось сыграть роль злодея, и Фокс предложил поменяться ролями.

Скриншоты

     
     



_________________
Человек – это канат, натянутый между животным и сверхчеловеком, – канат над пропастью.
В человеке ценно то, что он мост, а не цель. Фридрих Ницше
Other forum [Profile] [PM]
Display posts from previous:    
Reply to topic

The time now is: Today 01:53

All times are GMT + 3 Hours



You cannot post new topics in this forum
You cannot reply to topics in this forum
You cannot edit your posts in this forum
You cannot delete your posts in this forum
You cannot vote in polls in this forum
You cannot attach files in this forum
You cannot download files in this forum