Today is a free download without charge Download

Заказ на одного (Борис Бажуков) [2012, Россия, комедия, HDTV 1080i]

Reply to topic
 
Author
Message

Omen ®

Longevity: 8 years 10 months

Posts: 181086

Торрент-статистика

Post 26-May-2016 21:03

[Quote]

Заказ на одного- -Страна: Россия
Жанр: комедия
Год выпуска: 2012
Производство: «Кинокомпания "АТК-Студио"»
Продолжительность: 01:14:33
Оригинальная аудиодорожка: русский
Cубтитры: нет-Режиссер: Борис Бажуков-В ролях:
Алена Лавренюк, Андрей Носков, Кристина Кузьмина, Андрей Родимов, Евгений Ганелин, Семён Стругачёв,
Юрий Чернов, Александр Тютрюмов, Ольга Калмыкова, Владимир Крылов, Юрий Сергеев (II)-Описание:
Вечер 31 декабря. Городские улицы наполнены новогодними огнями, люди с подарками спешат домой встречать Новый Год. Только Сергей хочет поскорее сбежать от новогодней суеты и провести праздничную ночь дома — в одиночестве и покое. На столе шампанское, ужин…ещё немного и пробьют куранты. Но именно в этот момент раздаётся звонок в дверь — всего лишь первый в череде безумных происшествий…-Возраст: 12+-Качество: HDTV (1080i)
Формат: TS
Видео кодек: AVC
Аудио кодек: MPEG Audio

Видео: AVC, 1920 х 1080 (16:9), 25,000 кадр/сек, 8 238 Кбит/сек, 0.159 bit/pixel
Аудио: MPEG Audio 2, 48000 Hz, 192 Kbps, 2 канала
-

MediaInfo

General
ID : 1 (0x1)
Complete name : D:\Раздачи\Заказ на одного HDTV (1080i)\Заказ на одного HDTV (1080i).ts
Format : MPEG-TS
File size : 4.72 GiB
Duration : 1h 14mn
Overall bit rate mode : Variable
Overall bit rate : 9 074 Kbps
Video
ID : 256 (0x100)
Menu ID : 1234 (0x4D2)
Format : AVC
Format/Info : Advanced Video Codec
Format profile : [email protected]
Format settings, CABAC : Yes
Format settings, ReFrames : 3 frames
Codec ID : 27
Duration : 1h 14mn
Bit rate mode : Constant
Bit rate : 8 238 Kbps
Nominal bit rate : 10 000 Kbps
Width : 1 920 pixels
Height : 1 080 pixels
Display aspect ratio : 16:9
Frame rate : 25.000 fps
Standard : PAL
Color space : YUV
Chroma subsampling : 4:2:0
Bit depth : 8 bits
Scan type : Progressive
Bits/(Pixel*Frame) : 0.159
Stream size : 4.29 GiB (91%)
Color range : Limited
Color primaries : BT.709
Transfer characteristics : BT.709
Matrix coefficients : BT.709
Audio #1
ID : 257 (0x101)
Menu ID : 1234 (0x4D2)
Format : MPEG Audio
Format version : Version 1
Format profile : Layer 2
Codec ID : 3
Duration : 1h 14mn
Bit rate mode : Constant
Bit rate : 192 Kbps
Channel(s) : 2 channels
Sampling rate : 48.0 KHz
Compression mode : Lossy
Stream size : 102 MiB (2%)
Language : English
Audio #2
ID : 258 (0x102)
Menu ID : 1234 (0x4D2)
Format : MPEG Audio
Format version : Version 1
Format profile : Layer 2
Codec ID : 3
Duration : 1h 14mn
Bit rate mode : Constant
Bit rate : 192 Kbps
Channel(s) : 2 channels
Sampling rate : 48.0 KHz
Compression mode : Lossy
Stream size : 102 MiB (2%)
Language : English

Скриншоты

-Раздаю до первых 5-ти скачавших, на раздачи не возвращаюсь...-
Other forum [Profile] [PM]
Display posts from previous:    
Reply to topic

The time now is: Today 13:23

All times are GMT + 3 Hours



You cannot post new topics in this forum
You cannot reply to topics in this forum
You cannot edit your posts in this forum
You cannot delete your posts in this forum
You cannot vote in polls in this forum
You cannot attach files in this forum
You cannot download files in this forum